Erich Riegelmann | Brianna Hildebrand | Power Rangers Wild Force

Скачать через торрент [MULT] Осьминожки бесплатно русская версия torrent активатор

Статистика раздачи
Размер:  64 MB   |    Зарегистрирован:  1 год 3 месяца   |    .torrent скачан:  24 раза   |   
Раздают:  1  
   
загрузка...
 
Автор Сообщение

Galfimbul

avatar Galfimbul


Осьминожки (ТВ)

Год выпуска: 1976
Страна: СССР
Жанр: мультфильм, короткометражка
Продолжительность: 00:10:02
Перевод: не требуется
Cубтитры: нет
Режиссер: Раса Страутмане
Роли озвучивали: Михаил Козаков, Клара Румянова
Описание: Мультипликационный фильм про то как папы-осьминоги перепутали своих детей.
Релиз группы
Качество: DVDRip / рип с DVD5 Крупный план
Формат: MP4
Видео кодек: H.264
Аудио кодек: AAC
Видео: 478x360 AR:1.33 750 kbps 25 fps
Аудио : 1ch 48 kHz 128 kbps
avs [info]: 478x360p 1:1 @ 25/1 fps (cfr)
x264 [info]: using SAR=1/1
x264 [info]: using cpu capabilities: MMX2 SSE2Fast SSSE3 SSE4.2 AVX FMA3 AVX2 LZCNT BMI2
x264 [info]: profile High, level 4.1

x264 [info]: frame I:98 Avg QP:15.50 size: 19381
x264 [info]: frame P:3243 Avg QP:18.66 size: 7514
x264 [info]: frame B:11719 Avg QP:20.77 size: 2575
x264 [info]: consecutive B-frames: 1.7% 1.9% 8.0% 27.5% 19.9% 20.5% 8.3% 6.5% 2.4% 2.1% 1.2%
x264 [info]: mb I I16..4: 2.0% 73.7% 24.4%
x264 [info]: mb P I16..4: 0.8% 10.8% 1.6% P16..4: 38.1% 36.7% 10.8% 0.7% 0.0% skip: 0.4%
x264 [info]: mb B I16..4: 0.1% 1.1% 0.2% B16..8: 35.8% 22.3% 3.3% direct: 7.5% skip:29.7% L0:51.5% L1:39.4% BI: 9.1%
x264 [info]: 8x8 transform intra:80.1% inter:65.6%
x264 [info]: direct mvs spatial:97.4% temporal:2.6%
x264 [info]: coded y,uvDC,uvAC intra: 85.8% 84.5% 57.9% inter: 26.7% 27.2% 6.9%
x264 [info]: i16 v,h,dc,p: 9% 14% 11% 66%
x264 [info]: i8 v,h,dc,ddl,ddr,vr,hd,vl,hu: 11% 8% 9% 10% 12% 11% 12% 12% 15%
x264 [info]: i4 v,h,dc,ddl,ddr,vr,hd,vl,hu: 12% 9% 6% 9% 15% 13% 13% 10% 13%
x264 [info]: i8c dc,h,v,p: 32% 33% 20% 15%
x264 [info]: Weighted P-Frames: Y:38.6% UV:18.6%
x264 [info]: ref P L0: 33.6% 8.0% 15.4% 9.3% 7.5% 6.2% 5.4% 3.6% 3.4% 3.1% 3.2% 1.3% 0.0%
x264 [info]: ref B L0: 60.8% 14.8% 7.7% 4.5% 3.3% 2.8% 2.4% 1.8% 1.2% 0.7%
x264 [info]: ref B L1: 93.1% 6.9%
x264 [info]: kb/s:749.54

encoded 15060 frames, 25.61 fps, 749.55 kb/s
GeneralComplete name : D:\Torrents\Осьминожки.1976.DVDRip.x264.640x.rip by Frost O.S.mp4Format : MPEG-4Format profile : Base MediaCodec ID : isom (isom/avc1)File size : 63.8 MiBDuration : 10 min 2 sOverall bit rate : 888 kb/sMovie name : Осьминожки 1976 DVDRip x264 640x rip by Frost O SGenre : AnimationContentType : Short FilmEncoded date : UTC 2017-03-30 13:26:49Tagged date : UTC 2017-03-30 13:26:51Writing application : MkvToMp4 version: 0.224 (x64)Cover : YesComment : rip by Frost O.S

VideoID : 1Format : AVCFormat/Info : Advanced Video CodecFormat profile : [email protected] settings, CABAC : YesFormat settings, ReFrames : 11 framesCodec ID : avc1Codec ID/Info : Advanced Video CodingDuration : 10 min 2 sBit rate : 750 kb/sMaximum bit rate : 1 326 kb/sWidth : 478 pixelsHeight : 360 pixelsDisplay aspect ratio : 4:3Frame rate mode : ConstantFrame rate : 25.000 FPSColor space : YUVChroma subsampling : 4:2:0Bit depth : 8 bitsScan type : ProgressiveBits/(Pixel*Frame) : 0.174Stream size : 53.8 MiB (84%)Writing library : x264 core 148 r2744 b97ae06Encoding settings : cabac=1 / ref=11 / deblock=1:-1:-1 / analyse=0x3:0x133 / me=umh / subme=11 / psy=1 / psy_rd=0.60:0.00 / mixed_ref=1 / me_range=48 / chroma_me=1 / trellis=2 / 8x8dct=1 / cqm=0 / deadzone=21,11 / fast_pskip=0 / chroma_qp_offset=-2 / threads=6 / lookahead_threads=1 / sliced_threads=0 / nr=0 / decimate=0 / interlaced=0 / bluray_compat=0 / constrained_intra=0 / bframes=10 / b_pyramid=2 / b_adapt=2 / b_bias=0 / direct=3 / weightb=1 / open_gop=0 / weightp=2 / keyint=250 / keyint_min=25 / scenecut=40 / intra_refresh=0 / rc=2pass / mbtree=0 / bitrate=750 / ratetol=1.0 / qcomp=0.60 / qpmin=0 / qpmax=69 / qpstep=4 / cplxblur=20.0 / qblur=0.5 / ip_ratio=1.40 / pb_ratio=1.30 / aq=1:1.00Language : EnglishEncoded date : UTC 2017-03-30 13:26:49Tagged date : UTC 2017-03-30 13:26:50Color range : LimitedColor primaries : BT.601 PALTransfer characteristics : BT.470 System B, BT.470 System GMatrix coefficients : BT.601

AudioID : 2Format : AACFormat/Info : Advanced Audio CodecFormat profile : LCCodec ID : 40Duration : 10 min 2 sBit rate mode : ConstantBit rate : 128 kb/sChannel(s) : 1 channelChannel positions : Front: CSampling rate : 48.0 kHzFrame rate : 46.875 FPS (1024 spf)Compression mode : LossyStream size : 9.19 MiB (14%)Language : RussianDefault : YesAlternate group : 1Encoded date : UTC 2017-03-30 13:26:50Tagged date : UTC 2017-03-30 13:26:50


Трекер:  [ 30-Мар-2017 16:00 ]

  

Скачать .torrent

Размер .torrent файла 20 KB


Размер: 64 MB
Хэш (hash) релиза: 9072f5ed9cb6cdbade95d6087e1c2c287fea756b

Еще никто не оставлял запись к записи скачать торрент [MULT] Осьминожки . Будь первым!

!Обратная связь