Bob, der Flaschengeist | ReplayLunch Play Unravel 2 : C'est doux, c'est neuf, c'est Jay, Marmotte et Lâm qui sont en laine | Edge of Isolation

Скачать через торрент [MULT] Нехочуха бесплатно русская версия torrent активатор

Статистика раздачи
Размер:  81 MB   |    Зарегистрирован:  1 год 3 месяца   |    .torrent скачан:  17 раз   |   
Раздают:  1  
   
загрузка...
 
Автор Сообщение

Galfimbul

avatar Galfimbul


Нехочуха (ТВ)

Год выпуска: 1986
Страна: СССР
Жанр: мультфильм, короткометражка
Продолжительность: 00:09:15
Перевод: не требуется
Cубтитры: нет
Режиссер: Юрий Бутырин
Роли озвучивали: Вячеслав Невинный, Татьяна Ленникова, Зоя Пыльнова
Описание: Как перестал лениться герой фильма, обитавший ранее в стране Нехочухии.
Релиз группы
Качество: DVDRip / рип с DVD5 Крупный план
Формат: MP4
Видео кодек: H.264
Аудио кодек: AAC
Видео: 480x360 AR:1.33 1080 kbps 25 fps
Аудио : 1ch 48 kHz 128 kbps
avs [info]: 480x360p 1:1 @ 25/1 fps (cfr)
x264 [info]: using SAR=1/1
x264 [info]: using cpu capabilities: MMX2 SSE2Fast SSSE3 SSE4.2 AVX FMA3 AVX2 LZCNT BMI2
x264 [info]: profile High, level 4.1

x264 [info]: frame I:136 Avg QP:19.43 size: 26286
x264 [info]: frame P:3249 Avg QP:22.49 size: 10194
x264 [info]: frame B:10506 Avg QP:23.61 size: 3652
x264 [info]: consecutive B-frames: 2.5% 3.0% 9.4% 34.6% 19.7% 17.6% 6.5% 2.8% 2.1% 1.8%
x264 [info]: mb I I16..4: 2.1% 55.5% 42.4%
x264 [info]: mb P I16..4: 0.7% 13.8% 3.6% P16..4: 35.4% 31.3% 12.3% 1.8% 0.2% skip: 0.9%
x264 [info]: mb B I16..4: 0.6% 1.7% 0.5% B16..8: 30.4% 19.2% 4.0% direct:14.9% skip:28.9% L0:48.3% L1:36.8% BI:14.8%
x264 [info]: 8x8 transform intra:69.4% inter:65.8%
x264 [info]: direct mvs spatial:96.3% temporal:3.7%
x264 [info]: coded y,uvDC,uvAC intra: 84.8% 85.1% 57.7% inter: 40.8% 32.0% 6.6%
x264 [info]: i16 v,h,dc,p: 74% 7% 6% 13%
x264 [info]: i8 v,h,dc,ddl,ddr,vr,hd,vl,hu: 10% 8% 12% 9% 12% 9% 12% 10% 17%
x264 [info]: i4 v,h,dc,ddl,ddr,vr,hd,vl,hu: 15% 14% 5% 8% 12% 10% 12% 10% 14%
x264 [info]: i8c dc,h,v,p: 34% 34% 20% 12%
x264 [info]: Weighted P-Frames: Y:46.8% UV:28.8%
x264 [info]: ref P L0: 35.5% 13.4% 13.5% 8.4% 6.4% 5.6% 4.8% 3.6% 2.9% 2.4% 2.3% 1.2% 0.0%
x264 [info]: ref B L0: 63.6% 13.4% 6.5% 4.4% 3.1% 2.8% 2.2% 2.1% 1.2% 0.6%
x264 [info]: ref B L1: 94.1% 5.9%
x264 [info]: kb/s:1080.70

encoded 13891 frames, 24.42 fps, 1080.71 kb/s
GeneralComplete name : D:\Torrents\Нехочуха.1986.DVDRip.x264.640x.rip by Frost O.S.mp4Format : MPEG-4Format profile : Base MediaCodec ID : isom (isom/avc1)File size : 80.8 MiBDuration : 9 min 15 sOverall bit rate : 1 219 kb/sMovie name : Нехочуха 1986 DVDRip x264 640x rip by Frost O SGenre : AnimationContentType : Short FilmEncoded date : UTC 2017-03-30 13:25:17Tagged date : UTC 2017-03-30 13:25:19Writing application : MkvToMp4 version: 0.224 (x64)Cover : YesComment : rip by Frost O.S

VideoID : 1Format : AVCFormat/Info : Advanced Video CodecFormat profile : [email protected] settings, CABAC : YesFormat settings, ReFrames : 11 framesCodec ID : avc1Codec ID/Info : Advanced Video CodingDuration : 9 min 15 sBit rate : 1 080 kb/sMaximum bit rate : 2 046 kb/sWidth : 480 pixelsHeight : 360 pixelsDisplay aspect ratio : 4:3Frame rate mode : ConstantFrame rate : 25.000 FPSColor space : YUVChroma subsampling : 4:2:0Bit depth : 8 bitsScan type : ProgressiveBits/(Pixel*Frame) : 0.250Stream size : 71.6 MiB (89%)Writing library : x264 core 148 r2744 b97ae06Encoding settings : cabac=1 / ref=11 / deblock=1:-1:-1 / analyse=0x3:0x133 / me=umh / subme=11 / psy=1 / psy_rd=0.60:0.00 / mixed_ref=1 / me_range=48 / chroma_me=1 / trellis=2 / 8x8dct=1 / cqm=0 / deadzone=21,11 / fast_pskip=0 / chroma_qp_offset=-2 / threads=6 / lookahead_threads=1 / sliced_threads=0 / nr=0 / decimate=0 / interlaced=0 / bluray_compat=0 / constrained_intra=0 / bframes=9 / b_pyramid=2 / b_adapt=2 / b_bias=0 / direct=3 / weightb=1 / open_gop=0 / weightp=2 / keyint=250 / keyint_min=25 / scenecut=40 / intra_refresh=0 / rc=2pass / mbtree=0 / bitrate=1080 / ratetol=1.0 / qcomp=0.60 / qpmin=0 / qpmax=69 / qpstep=4 / cplxblur=20.0 / qblur=0.5 / ip_ratio=1.40 / pb_ratio=1.30 / aq=1:1.00Language : EnglishEncoded date : UTC 2017-03-30 13:25:17Tagged date : UTC 2017-03-30 13:25:18Color range : LimitedColor primaries : BT.601 PALTransfer characteristics : BT.470 System B, BT.470 System GMatrix coefficients : BT.601

AudioID : 2Format : AACFormat/Info : Advanced Audio CodecFormat profile : LCCodec ID : 40Duration : 9 min 15 sBit rate mode : ConstantBit rate : 128 kb/sChannel(s) : 1 channelChannel positions : Front: CSampling rate : 48.0 kHzFrame rate : 46.875 FPS (1024 spf)Compression mode : LossyStream size : 8.48 MiB (10%)Language : RussianDefault : YesAlternate group : 1Encoded date : UTC 2017-03-30 13:25:17Tagged date : UTC 2017-03-30 13:25:18


Трекер:  [ 30-Мар-2017 16:00 ]

  

Скачать .torrent

Размер .torrent файла 13 KB


Размер: 81 MB
Хэш (hash) релиза: 68e94f8ef71beefa6730269ba1a7b551027ff208

Еще никто не оставлял запись к записи скачать торрент [MULT] Нехочуха . Будь первым!

!Обратная связь