The OFFICIAL TorrentInvites.org Selling Buying Section | 3x01 El Chapo | 4. sezon 3. Bölüm

Скачать через торрент [MULT] Гуси-лебеди бесплатно русская версия torrent активатор

Статистика раздачи
Размер:  162 MB   |    Зарегистрирован:  1 год 3 месяца   |    .torrent скачан:  19 раз   |   
Раздают:  1  
   
загрузка...
 
Автор Сообщение

Galfimbul

avatar Galfimbul


Гуси-лебеди

Год выпуска: 1949
Страна: СССР
Жанр: мультфильм, короткометражка
Продолжительность: 00:18:33
Перевод: не требуется
Cубтитры: нет
Режиссер: Иван Иванов-Вано, Александра Снежко-Блоцкая
Роли озвучивали: Мария Бабанова, Вера Орлова
Описание: По мотивам русской народной сказки. Уехали матушка с батюшкой, а дочери наказ оставили братца Ваню беречь, со двора не выпускать. Заигралась Машенька, да не доглядела: унесли братика гуси-лебеди, помощники Бабы Яги. Теперь Машеньке надо выручать Ваню, а помогут ей в этом добрые друзья: яблонька, печка, речка и др.
Релиз группы
Качество: DVDRip / рип с DVD5 Крупный план, без реставрации
Формат: MP4
Видео кодек: H.264
Аудио кодек: AAC
Видео: 470x360 AR:1.31 1080 kbps 25 fps
Аудио : 1ch 48 kHz 128 kbps
avs [info]: 470x360p 1:1 @ 25/1 fps (cfr)
x264 [info]: using SAR=1/1
x264 [info]: using cpu capabilities: MMX2 SSE2Fast SSSE3 SSE4.2 AVX FMA3 AVX2 LZCNT BMI2
x264 [info]: profile High, level 4.1

x264 [info]: frame I:162 Avg QP:21.82 size: 27046
x264 [info]: frame P:7378 Avg QP:25.55 size: 9616
x264 [info]: frame B:20299 Avg QP:27.15 size: 3697
x264 [info]: consecutive B-frames: 4.1% 5.0% 10.8% 38.9% 18.7% 13.3% 4.7% 2.8% 1.1% 0.5%
x264 [info]: mb I I16..4: 1.2% 67.4% 31.4%
x264 [info]: mb P I16..4: 0.4% 7.7% 3.0% P16..4: 40.2% 32.5% 13.1% 2.0% 0.2% skip: 0.8%
x264 [info]: mb B I16..4: 0.1% 1.1% 0.5% B16..8: 32.3% 20.0% 4.5% direct:11.4% skip:30.0% L0:48.0% L1:36.2% BI:15.8%
x264 [info]: 8x8 transform intra:67.6% inter:59.8%
x264 [info]: direct mvs spatial:96.3% temporal:3.7%
x264 [info]: coded y,uvDC,uvAC intra: 89.8% 73.0% 33.9% inter: 40.9% 23.9% 4.1%
x264 [info]: i16 v,h,dc,p: 33% 29% 9% 29%
x264 [info]: i8 v,h,dc,ddl,ddr,vr,hd,vl,hu: 9% 11% 7% 9% 13% 10% 14% 10% 17%
x264 [info]: i4 v,h,dc,ddl,ddr,vr,hd,vl,hu: 17% 17% 6% 7% 11% 9% 11% 9% 14%
x264 [info]: i8c dc,h,v,p: 32% 33% 20% 15%
x264 [info]: Weighted P-Frames: Y:62.2% UV:41.0%
x264 [info]: ref P L0: 36.1% 16.1% 12.6% 8.2% 5.6% 5.2% 4.1% 3.0% 2.6% 2.5% 2.3% 1.7% 0.1%
x264 [info]: ref B L0: 63.9% 12.8% 6.6% 4.2% 3.2% 2.9% 2.4% 1.9% 1.3% 0.8%
x264 [info]: ref B L1: 95.1% 4.9%
x264 [info]: kb/s:1080.37

encoded 27839 frames, 22.94 fps, 1080.37 kb/s
GeneralComplete name : D:\Torrents\Гуси-лебеди.1949.DVDRip.x264.640x.rip by Frost O.S.mp4Format : MPEG-4Format profile : Base MediaCodec ID : isom (isom/avc1)File size : 162 MiBDuration : 18 min 33 sOverall bit rate : 1 217 kb/sMovie name : Гуси-лебеди 1949 DVDRip x264 640x rip by Frost O SGenre : AnimationContentType : Short FilmEncoded date : UTC 2017-03-30 13:21:23Tagged date : UTC 2017-03-30 13:21:39Writing application : MkvToMp4 version: 0.224 (x64)Cover : YesComment : rip by Frost O.S

VideoID : 1Format : AVCFormat/Info : Advanced Video CodecFormat profile : [email protected] settings, CABAC : YesFormat settings, ReFrames : 11 framesCodec ID : avc1Codec ID/Info : Advanced Video CodingDuration : 18 min 33 sBit rate : 1 080 kb/sMaximum bit rate : 2 288 kb/sWidth : 470 pixelsHeight : 360 pixelsDisplay aspect ratio : 4:3Frame rate mode : ConstantFrame rate : 25.000 FPSColor space : YUVChroma subsampling : 4:2:0Bit depth : 8 bitsScan type : ProgressiveBits/(Pixel*Frame) : 0.255Stream size : 143 MiB (89%)Writing library : x264 core 148 r2744 b97ae06Encoding settings : cabac=1 / ref=11 / deblock=1:-1:-1 / analyse=0x3:0x133 / me=umh / subme=11 / psy=1 / psy_rd=0.60:0.00 / mixed_ref=1 / me_range=48 / chroma_me=1 / trellis=2 / 8x8dct=1 / cqm=0 / deadzone=21,11 / fast_pskip=0 / chroma_qp_offset=-2 / threads=6 / lookahead_threads=1 / sliced_threads=0 / nr=0 / decimate=0 / interlaced=0 / bluray_compat=0 / constrained_intra=0 / bframes=9 / b_pyramid=2 / b_adapt=2 / b_bias=0 / direct=3 / weightb=1 / open_gop=0 / weightp=2 / keyint=250 / keyint_min=25 / scenecut=40 / intra_refresh=0 / rc=2pass / mbtree=0 / bitrate=1080 / ratetol=1.0 / qcomp=0.60 / qpmin=0 / qpmax=69 / qpstep=4 / cplxblur=20.0 / qblur=0.5 / ip_ratio=1.40 / pb_ratio=1.30 / aq=1:1.00Language : EnglishEncoded date : UTC 2017-03-30 13:21:23Tagged date : UTC 2017-03-30 13:21:32Color range : LimitedColor primaries : BT.601 PALTransfer characteristics : BT.470 System B, BT.470 System GMatrix coefficients : BT.601

AudioID : 2Format : AACFormat/Info : Advanced Audio CodecFormat profile : LCCodec ID : 40Duration : 18 min 33 sBit rate mode : ConstantBit rate : 128 kb/sChannel(s) : 1 channelChannel positions : Front: CSampling rate : 48.0 kHzFrame rate : 46.875 FPS (1024 spf)Compression mode : LossyStream size : 17.0 MiB (11%)Language : RussianDefault : YesAlternate group : 1Encoded date : UTC 2017-03-30 13:21:25Tagged date : UTC 2017-03-30 13:21:32


Трекер:  [ 30-Мар-2017 16:00 ]

  

Скачать .torrent

Размер .torrent файла 13 KB


Размер: 162 MB
Хэш (hash) релиза: 564f3269978e49469cc97acc72aef0822b2b699d

Еще никто не оставлял запись к записи скачать торрент [MULT] Гуси-лебеди . Будь первым!

!Обратная связь