Containment | PILU..! M ZOHRI PINJAM UANG 200rb U' MODAL BERANGKAT KE FINLANDIA IKUTI KEJUARAAN LARI 100 M PUTRA ? | Télécharger Part 3

Скачать через торрент [VIDEO] Другой мир: Войны крови Underworld: Blood Wars бесплатно русская версия torrent активатор

Статистика раздачи
Размер:  1.13 GB   |    Зарегистрирован:  1 год 3 месяца   |    .torrent скачан:  25 раз   |   
Раздают:  1  
   
загрузка...
 
Автор Сообщение

Galfimbul

avatar Galfimbul


Другой мир: Войны крови / Underworld: Blood Wars
«Protect the bloodline»

Год выпуска: 2016
Страна: США
Жанр: ужасы, боевик
Продолжительность: 01:31:32
Перевод: Русский Профессиональный (полное дублирование) Blu-ray EUR
Оригинальная дорожка: Есть
Cубтитры: русские (iTunes), украинские (iTunes), английские (iTunes)
Режиссер: Анна Ферстер / Anna Foerster
В ролях: Кейт Бекинсейл, Тео Джеймс, Лара Пулвер, Чарльз Дэнс, Тобайас Мензис, Брэдли Джеймс, Алисия Вела-Бэйли, Трент Гарретт, Дэйзи Хэд, Джеймс Фолкнер и другие .
Описание: Воительница-вампир Селена вступает в свой последний и решающий бой между оборотнями и кланом вампиров, который её предал.
Релиз группы
Качество: BDRip / рип с Blu-Ray EUR 1080p
Формат: MP4
Видео кодек: H.264
Аудио кодек: AAC
Видео: 960х400 AR:2.40 1500 kbps 23.976 fps
Аудио №1: [Russian] 2ch 48 kHz 128 kbps - Профессиональный (полное дублирование) Blu-ray EUR
Аудио №2: [English] 2ch 48 kHz 128 kbps - Оригинал
avs [info]: 960x400p 1:1 @ 2997/125 fps (cfr)
x264 [info]: using SAR=1/1
x264 [info]: using cpu capabilities: MMX2 SSE2Fast SSSE3 SSE4.2 AVX FMA3 AVX2 LZCNT BMI2
x264 [info]: profile High, level 4.1

x264 [info]: frame I:1515 Avg QP: 9.85 size: 51466
x264 [info]: frame P:34755 Avg QP:12.31 size: 15241
x264 [info]: frame B:95418 Avg QP:14.72 size: 4416
x264 [info]: consecutive B-frames: 4.0% 9.5% 8.9% 35.6% 12.6% 16.3% 4.0% 7.5% 0.9% 0.6%
x264 [info]: mb I I16..4: 7.9% 65.1% 26.9%
x264 [info]: mb P I16..4: 1.6% 8.2% 1.7% P16..4: 29.0% 34.3% 13.0% 0.0% 0.0% skip:12.0%
x264 [info]: mb B I16..4: 0.2% 0.8% 0.4% B16..8: 32.8% 21.8% 3.6% direct: 4.0% skip:36.2% L0:45.7% L1:44.2% BI:10.1%
x264 [info]: 8x8 transform intra:66.9% inter:46.0%
x264 [info]: direct mvs spatial:93.6% temporal:6.4%
x264 [info]: coded y,uvDC,uvAC intra: 77.1% 79.3% 69.5% inter: 15.4% 21.1% 14.7%
x264 [info]: i16 v,h,dc,p: 53% 12% 7% 28%
x264 [info]: i8 v,h,dc,ddl,ddr,vr,hd,vl,hu: 10% 8% 11% 9% 11% 12% 11% 12% 15%
x264 [info]: i4 v,h,dc,ddl,ddr,vr,hd,vl,hu: 8% 6% 32% 8% 10% 9% 9% 8% 11%
x264 [info]: i8c dc,h,v,p: 44% 28% 16% 13%
x264 [info]: Weighted P-Frames: Y:11.9% UV:7.2%
x264 [info]: ref P L0: 51.3% 4.3% 16.6% 7.6% 5.8% 4.9% 3.5% 2.0% 1.8% 1.8% 0.3% 0.0%
x264 [info]: ref B L0: 72.6% 12.4% 6.1% 2.9% 2.1% 1.6% 1.3% 0.6% 0.3%
x264 [info]: ref B L1: 94.0% 6.0%
x264 [info]: kb/s:1498.83

encoded 131688 frames, 16.59 fps, 1498.83 kb/s
GeneralComplete name : D:\Torrents\Underworld Blood Wars.2016.BDRip.x264.960x.rip by Frost O.S.mp4Format : MPEG-4Format profile : Base MediaCodec ID : isom (isom/avc1/iso2)File size : 1.13 GiBDuration : 1 h 31 minOverall bit rate mode : VariableOverall bit rate : 1 767 kb/sMovie name : Underworld Blood Wars 2016 BDRip x264 960x rip by Frost O SDirector : Анна Ферстер / Anna FoersterActor : Кейт Бекинсейл / Тео Джеймс / Лара Пулвер / Чарльз Дэнс / Тобайас Мензис / Брэдли Джеймс / Алисия Вела-Бэйли / Трент Гарретт / Дэйзи Хэд / Джеймс ФолкнерGenre : ActionContentType : Short FilmEncoded date : UTC 2017-03-29 12:01:15Tagged date : UTC 2017-03-29 12:04:03Writing application : MkvToMp4 version: 0.224 (x64)Cover : YesComment : rip by Frost O.SLongDescription : Воительница-вампир Селена вступает в свой последний и решающий бой между оборотнями и кланом вампиров, который её предал.

VideoID : 1Format : AVCFormat/Info : Advanced Video CodecFormat profile : [email protected] settings, CABAC : YesFormat settings, ReFrames : 10 framesCodec ID : avc1Codec ID/Info : Advanced Video CodingDuration : 1 h 31 minBit rate : 1 500 kb/sMaximum bit rate : 6 704 kb/sWidth : 960 pixelsHeight : 400 pixelsDisplay aspect ratio : 2.40:1Frame rate mode : ConstantFrame rate : 23.976 (24000/1001) FPSOriginal frame rate : 23.976 (23976/1000) FPSColor space : YUVChroma subsampling : 4:2:0Bit depth : 8 bitsScan type : ProgressiveBits/(Pixel*Frame) : 0.163Stream size : 981 MiB (85%)Writing library : x264 core 148 r2744 b97ae06Encoding settings : cabac=1 / ref=10 / deblock=1:-3:-3 / analyse=0x3:0x113 / me=umh / subme=11 / psy=1 / psy_rd=1.00:0.00 / mixed_ref=1 / me_range=32 / chroma_me=1 / trellis=2 / 8x8dct=1 / cqm=0 / deadzone=21,11 / fast_pskip=0 / chroma_qp_offset=-2 / threads=6 / lookahead_threads=1 / sliced_threads=0 / nr=0 / decimate=0 / interlaced=0 / bluray_compat=0 / constrained_intra=0 / bframes=9 / b_pyramid=2 / b_adapt=2 / b_bias=0 / direct=3 / weightb=1 / open_gop=0 / weightp=2 / keyint=250 / keyint_min=23 / scenecut=40 / intra_refresh=0 / rc=2pass / mbtree=0 / bitrate=1500 / ratetol=1.0 / qcomp=0.80 / qpmin=0 / qpmax=69 / qpstep=4 / cplxblur=20.0 / qblur=0.5 / ip_ratio=1.40 / pb_ratio=1.30 / aq=3:0.80Language : EnglishEncoded date : UTC 2017-03-29 12:01:15Tagged date : UTC 2017-03-29 12:02:43Color range : LimitedColor primaries : BT.709Transfer characteristics : BT.709Matrix coefficients : BT.709

Audio #1ID : 2Format : AACFormat/Info : Advanced Audio CodecFormat profile : LCCodec ID : 40Duration : 1 h 31 minBit rate mode : VariableBit rate : 128 kb/sMaximum bit rate : 135 kb/sChannel(s) : 2 channelsChannel positions : Front: L RSampling rate : 48.0 kHzFrame rate : 46.875 FPS (1024 spf)Compression mode : LossyStream size : 83.8 MiB (7%)Title : Dub_ Blu_ray EUR / Dub_ Blu_ray EURLanguage : RussianDefault : YesAlternate group : 1Encoded date : UTC 2017-03-29 12:02:08Tagged date : UTC 2017-03-29 12:02:43

Audio #2ID : 3Format : AACFormat/Info : Advanced Audio CodecFormat profile : LCCodec ID : 40Duration : 1 h 31 minBit rate mode : VariableBit rate : 128 kb/sMaximum bit rate : 135 kb/sChannel(s) : 2 channelsChannel positions : Front: L RSampling rate : 48.0 kHzFrame rate : 46.875 FPS (1024 spf)Compression mode : LossyStream size : 83.8 MiB (7%)Title : Original / OriginalLanguage : EnglishDefault : NoAlternate group : 1Encoded date : UTC 2017-03-29 12:02:35Tagged date : UTC 2017-03-29 12:02:43

Text #1ID : 4Format : Timed TextMuxing mode : sbtlCodec ID : tx3gDuration : 1 h 31 minBit rate mode : VariableBit rate : 77 b/sStream size : 51.6 KiB (0%)Title : iTunes / iTunesLanguage : RussianDefault : YesForced : NoAlternate group : 2Encoded date : UTC 2017-03-29 12:02:43Tagged date : UTC 2017-03-29 12:02:43

Text #2ID : 5Format : Timed TextMuxing mode : sbtlCodec ID : tx3gDuration : 1 h 31 minBit rate mode : VariableBit rate : 69 b/sStream size : 46.2 KiB (0%)Title : iTunes / iTunesLanguage : UkrainianDefault : NoForced : NoAlternate group : 2Encoded date : UTC 2017-03-29 12:02:43Tagged date : UTC 2017-03-29 12:02:43

Text #3ID : 6Format : Timed TextMuxing mode : sbtlCodec ID : tx3gDuration : 1 h 31 minBit rate mode : VariableBit rate : 48 b/sStream size : 32.0 KiB (0%)Title : iTunes / iTunesLanguage : EnglishDefault : NoForced : NoAlternate group : 2Encoded date : UTC 2017-03-29 12:02:43Tagged date : UTC 2017-03-29 12:02:43


Трекер:  [ 29-Мар-2017 14:30 ]

  

Скачать .torrent

Размер .torrent файла 11 KB


Размер: 1.13 GB
Хэш (hash) релиза: ac92c4792d8eabfe69d0cdc1ff6a52b76eedbb0c

Торренты, похожие на [VIDEO] Другой мир: Войны крови Underworld: Blood Wars скачать торрент

Форум Название Автор Размер S L Добавлен
Видео (Фильмы/Клипы) ·· [VIDEO] Другой мир: Войны крови / Underworld: Blood Wars (Анна Ферстер / Anna Foerster) [2016, ужасы, боевик, HDRip] [MP4, 480x] Dub Galfimbul 403885240385 MB 0 0 1490790977

15:36

29-Мар-17

Еще никто не оставлял запись к записи скачать торрент [VIDEO] Другой мир: Войны крови Underworld: Blood Wars . Будь первым!

!Обратная связь