Hoodie Allen - Discography | My Hero Academia S2 (Boku No Hero Academia S2) | 720p | TVRip | Dual Audio | x265 | S02E24 | a-student-s-guide -> a-survey-of-artif

Скачать через торрент [VIDEO] Другой мир: Войны крови Underworld: Blood Wars бесплатно русская версия torrent активатор

Статистика раздачи
Размер:  385 MB   |    Зарегистрирован:  1 год 3 месяца   |    .torrent скачан:  20 раз   |   
Раздают:  1  
   
загрузка...
 
Автор Сообщение

Galfimbul

avatar Galfimbul


Другой мир: Войны крови / Underworld: Blood Wars
«Protect the bloodline»

Год выпуска: 2016
Страна: США
Жанр: ужасы, боевик
Продолжительность: 01:31:32
Перевод: Русский Профессиональный (полное дублирование) Blu-ray EUR
Cубтитры: нет
Режиссер: Анна Ферстер / Anna Foerster
В ролях: Кейт Бекинсейл, Тео Джеймс, Лара Пулвер, Чарльз Дэнс, Тобайас Мензис, Брэдли Джеймс, Алисия Вела-Бэйли, Трент Гарретт, Дэйзи Хэд, Джеймс Фолкнер и другие .
Описание: Воительница-вампир Селена вступает в свой последний и решающий бой между оборотнями и кланом вампиров, который её предал.
Релиз группы
Качество: HDRip / рип с BDRip 720p
Формат: MP4
Видео кодек: XviD
Аудио кодек: AAC
Видео: 480х200 AR:2.40 453 kbps 23.976 fps
Аудио: [Russian] 2ch 48 kHz 128 kbps - Профессиональный (полное дублирование) Blu-ray EUR
GeneralComplete name : D:\Torrents\Underworld Blood Wars.2016.HDRip.XviD.480x.rip by Frost O.S.mp4Format : MPEG-4Format profile : Base MediaCodec ID : isom (isom/iso2)File size : 385 MiBDuration : 1 h 31 minOverall bit rate mode : VariableOverall bit rate : 588 kb/sMovie name : Underworld Blood Wars 2016 HDRip XviD 480x rip by Frost O SDirector : Анна Ферстер / Anna FoersterActor : Кейт Бекинсейл / Тео Джеймс / Лара Пулвер / Чарльз Дэнс / Тобайас Мензис / Брэдли Джеймс / Алисия Вела-Бэйли / Трент Гарретт / Дэйзи Хэд / Джеймс ФолкнерGenre : ActionContentType : Short FilmEncoded date : UTC 2017-03-29 12:10:08Tagged date : UTC 2017-03-29 12:10:34Writing application : MkvToMp4 version: 0.224 (x64)Cover : YesComment : rip by Frost O.SLongDescription : Воительница-вампир Селена вступает в свой последний и решающий бой между оборотнями и кланом вампиров, который её предал.

VideoID : 1Format : MPEG-4 VisualFormat profile : Advanced [email protected] settings, BVOP : YesFormat settings, QPel : YesFormat settings, GMC : No warppointsFormat settings, Matrix : CustomCodec ID : 20Duration : 1 h 31 minBit rate mode : VariableBit rate : 453 kb/sMaximum bit rate : 3 192 kb/sWidth : 480 pixelsHeight : 200 pixelsDisplay aspect ratio : 2.40:1Frame rate mode : ConstantFrame rate : 23.976 (24000/1001) FPSOriginal frame rate : 23.976 (23976/1000) FPSColor space : YUVChroma subsampling : 4:2:0Bit depth : 8 bitsScan type : ProgressiveCompression mode : LossyBits/(Pixel*Frame) : 0.197Stream size : 296 MiB (77%)Title : avi_GPAC0.5.2_DEV_rev248_g39d5978_masterWriting library : XviD 1.2.1 (UTC 2008-12-04)Language : EnglishTagged date : UTC 2017-03-29 12:10:13

AudioID : 2Format : AACFormat/Info : Advanced Audio CodecFormat profile : LCCodec ID : 40Duration : 1 h 31 minBit rate mode : VariableBit rate : 128 kb/sMaximum bit rate : 135 kb/sChannel(s) : 2 channelsChannel positions : Front: L RSampling rate : 48.0 kHzFrame rate : 46.875 FPS (1024 spf)Compression mode : LossyStream size : 83.8 MiB (22%)Title : Dub_ Blu_ray EUR / Dub_ Blu_ray EURLanguage : RussianDefault : YesAlternate group : 1Encoded date : UTC 2017-03-29 12:10:11Tagged date : UTC 2017-03-29 12:10:13


Трекер:  [ 29-Мар-2017 14:30 ]

  

Скачать .torrent

Размер .torrent файла 15 KB


Размер: 385 MB
Хэш (hash) релиза: 5d0829048f5b200a82f653dd0f777b6ccf1f94c9

Торренты, похожие на [VIDEO] Другой мир: Войны крови Underworld: Blood Wars скачать торрент

Форум Название Автор Размер S L Добавлен
Видео (Фильмы/Клипы) ·· [VIDEO] Другой мир: Войны крови / Underworld: Blood Wars (Анна Ферстер / Anna Foerster) [2016, ужасы, боевик, BDRip] [MP4, 960x] Dub, Original, Sub (rus, ukr, eng) Galfimbul 12130486861.13 GB 0 0 1490790984

15:36

29-Мар-17

Еще никто не оставлял запись к записи скачать торрент [VIDEO] Другой мир: Войны крови Underworld: Blood Wars . Будь первым!

!Обратная связь