Ghosts and UFO's (by SedonaLeigh) | Mudança de Hábito 2 - Mais Loucuras no Convento Clássico / Comédia / Musical / Policial Idioma: Inglês / Português 1993 MKV Torrent DownloadVídeo 10 / Áudio 10CompletoSinopse: Deloris Van Cartier (Whoopi Goldberg) agora é uma cantora famosa e retorna a São Francisco para ajudar suas amigas freiras. Sua missão é dar...

| Super Fly

Скачать через торрент [VIDEO] Человек-муравей Ant-Man бесплатно русская версия torrent активатор

Статистика раздачи
Размер:  2.15 GB   |    Зарегистрирован:  1 год 3 месяца   |    .torrent скачан:  54 раза   |   
Раздают:  1  
   
загрузка...
 
Автор Сообщение

Galfimbul

avatar Galfimbul


Человек-муравей / Ant-Man
«Рожденный ползать взлетит до небес»
Год выпуска: 2015
Оригинальное название: Ant-Man
Страна: США
Жанр: фантастика, боевик, комедия, приключения
Возраст: 12+

Режиссер: Пейтон Рид / Peyton Reed

В ролях: Пол Радд, Майкл Дуглас, Эванджелин Лилли, Кори Столл, Майкл Пенья, Бобби Каннавейл, Ти-Ай, Давид Дастмалчян, Эбби Райдер Фортсон, Джуди Грир, Энтони Маки, Вуд Харрис, Мартин Донован, Хейли Этвелл, Джон Слэттери, Гаррет Моррис, Нил Гамбургер, Род Халлетт, Джо Крест, Джо Букаро III

Описание: Вооружившись удивительной способностью уменьшаться в размере, но обладать при этом большой силой, мошенник Скотт Лэнг должен стать героем и помочь своему наставнику, доктору Хэнку Пиму, сохранить в тайне существование костюма Человека-муравья от угроз нового поколения.

Продолжительность: 01:57:06
Перевод: Дублированный [Лицензия]
Оригинальная дорожка: есть

Автор рипа:

Качество видео: BDRip Исходник: Blu-Ray Remux (1080p) Формат: mp4
Видео кодек: MPEG-4 AVC Аудио кодек: AAC
Видео: 1280x692 (1.85:1) at 23.976 fps, AVC at 2 361 kbps avg, 0.111 bit/pixel
Аудио №1 Rus: 48.0 KHz, AAC, 2 ch, 128.0 Kbps
Аудио №2 Eng: 48.0 KHz, AAC, 2 ch, 128.0 Kbps
Субтитры: русские (форсированные, полные), английские (полные)
Навигация по главам: есть
Размер: 2.15 GiB
avs [info]: 1280x692p 1:1 @ 24000/1001 fps (cfr)
x264 [info]: using SAR=1/1
x264 [info]: using cpu capabilities: MMX2 SSE2Fast SSSE3 Cache64
x264 [info]: profile High, level 4.1
x264 [info]: frame I:1779 Avg QP:15.28 size:104283
x264 [info]: frame P:38609 Avg QP:18.93 size: 25259
x264 [info]: frame B:128083 Avg QP:21.07 size: 7130
x264 [info]: consecutive B-frames: 4.0% 3.5% 10.1% 15.2% 15.3% 37.3% 6.8% 2.9% 1.2% 2.1% 1.8%
x264 [info]: mb I I16..4: 9.6% 68.2% 22.2%
x264 [info]: mb P I16..4: 4.0% 12.1% 1.8% P16..4: 44.7% 17.2% 12.5% 0.0% 0.0% skip: 7.7%
x264 [info]: mb B I16..4: 0.2% 0.9% 0.2% B16..8: 40.8% 5.5% 1.1% direct: 3.5% skip:47.9% L0:44.3% L1:49.7% BI: 6.0%
x264 [info]: 8x8 transform intra:68.1% inter:71.0%
x264 [info]: coded y,uvDC,uvAC intra: 62.7% 74.1% 39.0% inter: 13.5% 18.3% 1.6%
x264 [info]: i16 v,h,dc,p: 24% 20% 6% 50%
x264 [info]: i8 v,h,dc,ddl,ddr,vr,hd,vl,hu: 19% 16% 18% 6% 9% 9% 9% 8% 8%
x264 [info]: i4 v,h,dc,ddl,ddr,vr,hd,vl,hu: 30% 16% 14% 5% 9% 8% 7% 6% 4%
x264 [info]: i8c dc,h,v,p: 48% 21% 21% 10%
x264 [info]: Weighted P-Frames: Y:3.8% UV:2.2%
x264 [info]: ref P L0: 52.9% 9.5% 15.9% 6.2% 4.6% 3.8% 3.0% 1.9% 1.7% 0.5% 0.0%
x264 [info]: ref B L0: 77.2% 10.3% 5.3% 2.5% 1.9% 1.5% 0.9% 0.3%
x264 [info]: ref B L1: 92.5% 7.5%
x264 [info]: kb/s:2361.24
encoded 168471 frames, 2.00 fps, 2361.24 kb/s
GeneralComplete name : ...\Chelovek-muravej_2015_KinoGadget.mp4Format : MPEG-4Format profile : Base MediaCodec ID : isom (isom)File size : 2.15 GiBDuration : 1 h 57 minOverall bit rate mode : VariableOverall bit rate : 2 629 kb/sMovie name : Человек-муравей | KinoGadgetPerformer : Пейтон РидDirector : Пейтон РидActor : Пол Радд / Майкл Дуглас / Эванджелин Лилли / Кори Столл / Майкл Пенья / Бобби Каннавейл / Ти-Ай / Давид Дастмалчян / Эбби Райдер Фортсон / Джуди Грир / Энтони Маки / Вуд Харрис / Мартин Донован / Хейли Этвелл / Джон Слэттери / Гаррет Моррис / Нил Гамбургер / Род Халлетт / Джо Крест / Джо Букаро IIIScreenplay by : Эдгар Райт / Джо Корниш / Адам МакКейProducer : Кевин Файги / Виктория Алонсо / Луис Д’ЭспозитоGenre : Action, Adventure, ComedyContentType : Short FilmRecorded date : 2015Encoded date : UTC 2017-03-28 05:55:07Tagged date : UTC 2017-03-28 06:02:12Cover : YesContentRating : mpaa|PG-13|300|LongDescription : Вооружившись удивительной способностью уменьшаться в размере, но обладать при этом большой силой, мошенник Скотт Лэнг должен стать героем и помочь своему наставнику, доктору Хэнку Пиму, сохранить в тайне существование костюма Человека-муравья от угроз нового поколения.HDVideo : Yes

VideoID : 1Format : AVCFormat/Info : Advanced Video CodecFormat profile : [email protected] settings, CABAC : YesFormat settings, ReFrames : 9 framesCodec ID : avc1Codec ID/Info : Advanced Video CodingDuration : 1 h 57 minBit rate : 2 361 kb/sMaximum bit rate : 30.2 Mb/sWidth : 1 280 pixelsHeight : 692 pixelsDisplay aspect ratio : 1.85:1Frame rate mode : ConstantFrame rate : 23.976 (24000/1001) FPSColor space : YUVChroma subsampling : 4:2:0Bit depth : 8 bitsScan type : ProgressiveBits/(Pixel*Frame) : 0.111Stream size : 1.93 GiB (90%)Writing library : x264 core 148 r2638 7599210Encoding settings : cabac=1 / ref=9 / deblock=1:-2:-1 / analyse=0x3:0x113 / me=umh / subme=7 / psy=1 / psy_rd=1.00:0.00 / mixed_ref=1 / me_range=32 / chroma_me=1 / trellis=2 / 8x8dct=1 / cqm=0 / deadzone=21,11 / fast_pskip=0 / chroma_qp_offset=-2 / threads=3 / lookahead_threads=1 / sliced_threads=0 / nr=0 / decimate=1 / interlaced=0 / bluray_compat=0 / constrained_intra=0 / bframes=10 / b_pyramid=2 / b_adapt=2 / b_bias=0 / direct=1 / weightb=1 / open_gop=0 / weightp=2 / keyint=250 / keyint_min=25 / scenecut=40 / intra_refresh=0 / rc_lookahead=60 / rc=crf / mbtree=1 / crf=19.0 / qcomp=0.60 / qpmin=0 / qpmax=69 / qpstep=4 / vbv_maxrate=62500 / vbv_bufsize=78125 / crf_max=0.0 / nal_hrd=none / filler=0 / ip_ratio=1.40 / aq=1:1.00Encoded date : UTC 2017-03-27 17:20:16Tagged date : UTC 2017-03-28 05:56:43

Audio #1ID : 2Format : AACFormat/Info : Advanced Audio CodecFormat profile : LCCodec ID : 40Duration : 1 h 57 minBit rate mode : VariableBit rate : 128 kb/sMaximum bit rate : 135 kb/sChannel(s) : 2 channelsChannel positions : Front: L RSampling rate : 48.0 kHzFrame rate : 46.875 FPS (1024 spf)Compression mode : LossyStream size : 107 MiB (5%)Title : Dub [License]Language : RussianEncoded date : UTC 2017-03-27 17:24:14Tagged date : UTC 2017-03-28 05:56:43

Audio #2ID : 3Format : AACFormat/Info : Advanced Audio CodecFormat profile : LCCodec ID : 40Duration : 1 h 57 minBit rate mode : VariableBit rate : 128 kb/sMaximum bit rate : 135 kb/sChannel(s) : 2 channelsChannel positions : Front: L RSampling rate : 48.0 kHzFrame rate : 46.875 FPS (1024 spf)Compression mode : LossyStream size : 107 MiB (5%)Title : OriginalLanguage : EnglishEncoded date : UTC 2017-03-27 17:35:30Tagged date : UTC 2017-03-28 05:56:43

Text #1ID : 4Format : Timed TextCodec ID : tx3gDuration : 1 h 56 minBit rate mode : VariableBit rate : 0 b/sStream size : 172 Bytes (0%)Title : ForcedLanguage : RussianForced : NoEncoded date : UTC 2017-03-28 05:56:43Tagged date : UTC 2017-03-28 05:56:43

Text #2ID : 5Format : Timed TextCodec ID : tx3gDuration : 1 h 56 minBit rate mode : VariableBit rate : 94 b/sStream size : 80.4 KiB (0%)Title : FullLanguage : RussianForced : NoEncoded date : UTC 2017-03-28 05:56:43Tagged date : UTC 2017-03-28 05:56:43

Text #3ID : 6Format : Timed TextCodec ID : tx3gDuration : 1 h 56 minBit rate mode : VariableBit rate : 63 b/sStream size : 53.8 KiB (0%)Title : FullLanguage : EnglishForced : NoEncoded date : UTC 2017-03-28 05:56:43Tagged date : UTC 2017-03-28 05:56:43

Menu00:00:00.000 : Chapter 0100:02:08.837 : Chapter 0200:08:40.186 : Chapter 0300:15:24.841 : Chapter 0400:19:59.740 : Chapter 0500:27:50.210 : Chapter 0600:33:07.235 : Chapter 0700:38:53.957 : Chapter 0800:44:36.465 : Chapter 0900:49:22.459 : Chapter 1000:57:44.252 : Chapter 1101:00:48.812 : Chapter 1201:06:31.529 : Chapter 1301:23:21.288 : Chapter 1401:34:20.530 : Chapter 1501:47:34.239 : Chapter 16


Трекер:  [ 28-Мар-2017 09:00 ]

  

Скачать .torrent

Размер .torrent файла 11 KB


Размер: 2.15 GB
Хэш (hash) релиза: 74078d30d5b25815d550d66b438cae294a3129b6

Торренты, похожие на [VIDEO] Человек-муравей Ant-Man скачать торрент

Форум Название Автор Размер S L Добавлен
Видео (Фильмы/Клипы) ·· [VIDEO] Человек-муравей / Ant-Man (Пейтон Рид / Пейтон Рид) [2015, фантастика, боевик, комедия, приключения, BDRip] [MP4, 1280x] Galfimbul 23002527762.14 GB 0 0 1451732500

14:01

2-Янв-16

Видео (Фильмы/Клипы) ·· [VIDEO] Человек-муравей / Ant-Man (Пейтон Рид / Peyton Reed) [2015, США, фантастика, боевик, комедия, HDRip][MP4, 640x] Dub iTunes Galfimbul 11022169591.03 GB 0 0 1448616510

12:28

27-Ноя-15

Еще никто не оставлял запись к записи скачать торрент [VIDEO] Человек-муравей Ant-Man . Будь первым!

!Обратная связь