Maharakshak Devi | True Crimes (2016) | TVB Between Love And Desire

Скачать через торрент музыку Angels Egg Яйцо ангела - 2000 г., FLAC бесплатно без регистрации torrent

Статистика раздачи
Размер:  187 MB   |    Зарегистрирован:  1 год 3 месяца   |    .torrent скачан:  29 раз   |   
Раздают:  1  
   
загрузка...
 
Автор Сообщение

Galfimbul

avatar Galfimbul


Яйцо ангелаОбщие характеристики:
Производство:
Год выпуска: 2000
Формат: FLAC
Частота: 44100Гц
Продолжительность: 14 треков - 44:30
Альбом:
[spoiler="2000 - Angel's Egg OST [TKCA-71938]"]
OST
Список треков:
01. Prelude [2:47]
02. Egg's Dream [2:19]
03. Mechanical Sun [2:22]
04. Main Theme [2:36]
05. Memories of Water [3:12]
06. Beyond the Window [2:25]
07. Sea Bed's Town [2:29]
08. Fish Hunting [4:20]
09. Opera House [1:57]
10. Accumulation of Time [4:17]
11. Angel's Fossil [2:18]
12. Night Thief [5:45]
13. Transmigration [3:10]
14. Different God [4:32]
[/spoiler]
Проверка:
<div class="sp-wrap">
<div class="sp-head folded">2000 - Angel's Egg OST</div>
<div class="sp-body">
<div class="sp-wrap">
<div class="sp-head folded">ЕАС Лог</div>
<div class="sp-body">

Exact Audio Copy V1.3 from 2. September 2016

EAC extraction logfile from 3. October 2016, 21:31

Kanno Yoshihiro / Angel's Egg OST

Used drive : PLEXTOR CD-R PREMIUM2 Adapter: 1 ID: 1

Read mode : SecureUtilize accurate stream : YesDefeat audio cache : YesMake use of C2 pointers : No

Read offset correction : 30Overread into Lead-In and Lead-Out : YesFill up missing offset samples with silence : YesDelete leading and trailing silent blocks : NoNull samples used in CRC calculations : YesUsed interface : Native Win32 interface for Win NT & 2000Gap handling : Appended to previous track

Used output format : User Defined EncoderSelected bitrate : 1024 kBit/sQuality : HighAdd ID3 tag : NoCommand line compressor : C:\Program Files (x86)\Exact Audio Copy RIP\Flac\flac.exeAdditional command line options : -V -8 -T "Genre=%genre%" -T "Artist=%artist%" -T "Title=%title%" -T "Album=%albumtitle%" -T "Date=%year%" -T "Tracknumber=%tracknr%" -T "Comment=%comment%" %source%

TOC of the extracted CD

Track | Start | Length | Start sector | End sector --------------------------------------------------------- 1 | 0:00.00 | 2:47.12 | 0 | 12536 2 | 2:47.12 | 2:19.18 | 12537 | 22979 3 | 5:06.30 | 2:22.22 | 22980 | 33651 4 | 7:28.52 | 2:35.43 | 33652 | 45319 5 | 10:04.20 | 3:11.55 | 45320 | 59699 6 | 13:16.00 | 2:25.25 | 59700 | 70599 7 | 15:41.25 | 2:29.37 | 70600 | 81811 8 | 18:10.62 | 4:20.18 | 81812 | 101329 9 | 22:31.05 | 1:56.47 | 101330 | 110076 10 | 24:27.52 | 4:17.05 | 110077 | 129356 11 | 28:44.57 | 2:18.23 | 129357 | 139729 12 | 31:03.05 | 5:44.72 | 139730 | 165601 13 | 36:48.02 | 3:09.48 | 165602 | 179824 14 | 39:57.50 | 4:32.00 | 179825 | 200224

Track 1

Filename D:\Work\RIPs\01 - Prelude.wav

Pre-gap length 0:00:02.00

Peak level 50.6 % Extraction speed 8.6 X Track quality 100.0 % Test CRC 41D2C9C5 Copy CRC 41D2C9C5 Accurately ripped (confidence 3) [E3919B9E] (AR v2) Copy OK

Track 2

Filename D:\Work\RIPs\02 - Egg's Dream.wav

Peak level 83.0 % Extraction speed 9.0 X Track quality 100.0 % Test CRC FECD6D47 Copy CRC FECD6D47 Accurately ripped (confidence 3) [D83E792E] (AR v2) Copy OK

Track 3

Filename D:\Work\RIPs\03 - Mechanical Sun.wav

Peak level 96.8 % Extraction speed 9.5 X Track quality 100.0 % Test CRC F9DC1FAA Copy CRC F9DC1FAA Accurately ripped (confidence 3) [0ECC4ADF] (AR v2) Copy OK

Track 4

Filename D:\Work\RIPs\04 - Main Theme.wav

Peak level 66.9 % Extraction speed 10.0 X Track quality 100.0 % Test CRC 314A24E4 Copy CRC 314A24E4 Accurately ripped (confidence 3) [DB6B7894] (AR v2) Copy OK

Track 5

Filename D:\Work\RIPs\05 - Memories of Water.wav

Peak level 24.1 % Extraction speed 10.6 X Track quality 100.0 % Test CRC 9E9CC594 Copy CRC 9E9CC594 Accurately ripped (confidence 3) [C82BE73D] (AR v2) Copy OK

Track 6

Filename D:\Work\RIPs\06 - Beyond the Window.wav

Peak level 47.6 % Extraction speed 10.8 X Track quality 100.0 % Test CRC 9B6FE290 Copy CRC 9B6FE290 Accurately ripped (confidence 3) [972F6610] (AR v2) Copy OK

Track 7

Filename D:\Work\RIPs\07 - Sea Bed's Town.wav

Peak level 80.7 % Extraction speed 11.3 X Track quality 100.0 % Test CRC C68D2A9D Copy CRC C68D2A9D Accurately ripped (confidence 3) [5D36AA9A] (AR v2) Copy OK

Track 8

Filename D:\Work\RIPs\08 - Fish Hunting.wav

Peak level 100.0 % Extraction speed 10.6 X Track quality 99.9 % Test CRC 82FFC00C Copy CRC 82FFC00C Accurately ripped (confidence 3) [FDABF6EA] (AR v2) Copy OK

Track 9

Filename D:\Work\RIPs\09 - Opera House.wav

Peak level 56.1 % Extraction speed 11.7 X Track quality 100.0 % Test CRC B3BBEC58 Copy CRC B3BBEC58 Accurately ripped (confidence 3) [08EA0ACE] (AR v2) Copy OK

Track 10

Filename D:\Work\RIPs\10 - Accumulation of Time.wav

Peak level 51.5 % Extraction speed 13.0 X Track quality 100.0 % Test CRC 17181DF6 Copy CRC 17181DF6 Accurately ripped (confidence 3) [42F46EB7] (AR v2) Copy OK

Track 11

Filename D:\Work\RIPs\11 - Angel's Fossil.wav

Peak level 93.0 % Extraction speed 12.7 X Track quality 100.0 % Test CRC 3F0B2BD5 Copy CRC 3F0B2BD5 Accurately ripped (confidence 3) [A8C060F4] (AR v2) Copy OK

Track 12

Filename D:\Work\RIPs\12 - Night Thief.wav

Peak level 74.8 % Extraction speed 12.9 X Track quality 99.9 % Test CRC A8F05F56 Copy CRC A8F05F56 Accurately ripped (confidence 3) [0049E517] (AR v2) Copy OK

Track 13

Filename D:\Work\RIPs\13 - Transmigration.wav

Peak level 100.0 % Extraction speed 13.9 X Track quality 100.0 % Test CRC 836E79DA Copy CRC 836E79DA Accurately ripped (confidence 3) [47846B01] (AR v2) Copy OK

Track 14

Filename D:\Work\RIPs\14 - Different God.wav

Peak level 42.6 % Extraction speed 7.1 X Track quality 99.8 % Test CRC E93A569D Copy CRC E93A569D Accurately ripped (confidence 3) [7AE6BD2E] (AR v2) Copy OK

All tracks accurately ripped

No errors occurred

End of status report

---- CUETools DB Plugin V2.1.6

[CTDB TOCID: rL3qEB0FTSHpX9j_8KYijv3DW.Q-] foundSubmit result: rL3qEB0FTSHpX9j_8KYijv3DW.Q- has been confirmedTrack | CTDB Status 1 | (2/2) Accurately ripped 2 | (2/2) Accurately ripped 3 | (2/2) Accurately ripped 4 | (2/2) Accurately ripped 5 | (2/2) Accurately ripped 6 | (2/2) Accurately ripped 7 | (2/2) Accurately ripped 8 | (2/2) Accurately ripped 9 | (2/2) Accurately ripped 10 | (2/2) Accurately ripped 11 | (2/2) Accurately ripped 12 | (2/2) Accurately ripped 13 | (2/2) Accurately ripped 14 | (2/2) Accurately ripped

==== Log checksum 8EC359429DDA9E7368C99BD1B9D752A88F956955BA5AC912814DE5644FBFCBDA ====
-----------------------

DON'T MODIFY THIS FILE

-----------------------

PERFORMER: auCDtect Task Manager, ver. 1.6.0 RC1 build 1.6.0.1Copyright (c) 2008-2010 y-soft. All rights reservedhttp://y-soft.org

ANALYZER: auCDtect: CD records authenticity detector, version 0.8.2Copyright (c) 2004 Oleg Berngardt. All rights reserved.Copyright (c) 2004 Alexander Djourik. All rights reserved.

FILE: 01 - Prelude.flac Size: 7665671 Hash: B37ACDC98FC6F535D0C75D78F6A09ABD Accuracy: -m0 Conclusion: CDDA 99% Signature: CCF08100D8129D1CEE0936491E74202BFACB7E60FILE: 02 - Egg's Dream.flac Size: 9758532 Hash: E0F205D34470DADF5CCAD33D9467D78D Accuracy: -m0 Conclusion: CDDA 94% Signature: 330CC669345252CE4B7852F71F58F5DFE8ECB9F1FILE: 03 - Mechanical Sun.flac Size: 11668139 Hash: 5D6D62A24E841E29D7613A6C8410BC3F Accuracy: -m0 Conclusion: CDDA 100% Signature: 318837597DB78241F93C2C9003033E834F2816AFFILE: 04 - Main Theme.flac Size: 10339880 Hash: 58B91CF36DA3DE1F3DA0681C2FA077C0 Accuracy: -m0 Conclusion: CDDA 58% Signature: BAFD4237CBF17173DED91F56143D334147359876FILE: 05 - Memories of Water.flac Size: 11043621 Hash: FDB115237435DACD1C7A881986FC26BA Accuracy: -m0 Conclusion: ??? Signature: F6032FBDA074489E81598632C69DC1231F80A8C3FILE: 06 - Beyond the Window.flac Size: 10005104 Hash: 981D55B885253F6C14C244EE04F11133 Accuracy: -m0 Conclusion: CDDA 62% Signature: 8E3F70970E108AD86B8027AE129941023402CF23FILE: 07 - Sea Bed's Town.flac Size: 9435074 Hash: 5AE02364080A7752ABBBDAF26C0045B4 Accuracy: -m0 Conclusion: ??? Signature: 9B7A8F6A7BAA45EE15B4A680865C95B61B102D00FILE: 08 - Fish Hunting.flac Size: 19293792 Hash: DAB621E8A06D64B222978A01D58D65B5 Accuracy: -m0 Conclusion: CDDA 100% Signature: 290BCBDC46CFCC8DED6D8540A635FBED54B78353FILE: 09 - Opera House.flac Size: 7668883 Hash: 7CAA5516EB0872401CE314FF3EF4810C Accuracy: -m0 Conclusion: CDDA 94% Signature: C1BE53B47B715FB050B2B38C172CFC760FFF80AAFILE: 10 - Accumulation of Time.flac Size: 18306493 Hash: 146902B0B79F169B8AE7FFA245A19568 Accuracy: -m0 Conclusion: CDDA 100% Signature: 8B9AAD6DE6189567FB64C046B6609303C536ECEDFILE: 11 - Angel's Fossil.flac Size: 9862007 Hash: 43797917F7010C7F9764FD64A6774B83 Accuracy: -m0 Conclusion: CDDA 100% Signature: CD8C0DCDF770BEA36DC8A0D354F9D8005100344CFILE: 12 - Night Thief.flac Size: 22713245 Hash: 4AA9E3B2742A4F96CEA637CFAD446A2C Accuracy: -m0 Conclusion: CDDA 42% Signature: 3B01864FFF63D380200BE90255B1596AB64CC9CFFILE: 13 - Transmigration.flac Size: 15144050 Hash: 5CC3978DD91DF529BDE769EA956B704A Accuracy: -m0 Conclusion: CDDA 100% Signature: D816057B6B5D4E7425C187FA76C01A3D1415095DFILE: 14 - Different God.flac Size: 20025597 Hash: 96C6CA9F8F7492105B8667D55B34E9C7 Accuracy: -m0 Conclusion: ??? Signature: EC13609144EF9F8413E4A6CE5E28E71CD15875FA
</div>
</div>
</div>
</div>
Приятного прослушивания

Трекер:  [ 24-Мар-2017 07:30 ]

  

Скачать .torrent

Размер .torrent файла 17 KB


Размер: 187 MB
Хэш (hash) релиза: 83444523b9ed56ec7a1fb6b1e3783b75996bcaf2

Еще никто не оставлял запись к записи скачать торрент Angels Egg Яйцо ангела - 2000 г., FLAC . Будь первым!

!Обратная связь