Madam Cutie on Duty | Bienvenue à Monster High: À l'origine | Télécharger Part 14

Скачать через торрент музыку Big Wars Большие Войны - 1993 г., FLAC бесплатно без регистрации torrent

Статистика раздачи
Размер:  196 MB   |    Зарегистрирован:  1 год 3 месяца   |    .torrent скачан:  25 раз   |   
Раздают:  1  
   
загрузка...
 
Автор Сообщение

Galfimbul

avatar Galfimbul


Большие ВойныОбщие характеристики:
Производство:
Год выпуска: 1993
Формат: FLAC
Частота: 44100Гц
Продолжительность: 15 треков - 39:45
Альбом:
[spoiler="1993 - OST [TKCA-70162]"]
OST
Список треков:
01. Gekichin [3:52]
02. Fukkatsu [3:07]
03. Saikai [1:23]
04. Tenjoukai [3:24]
05. Kakutou [2:27]
06. Shutsugeki [3:24]
07. Kaimetsu [1:54]
08. Gekisen [2:43]
09. Sakuteki [1:41]
10. Kami Osen [0:52]
11. Jigoku [2:24]
12. Shitou [2:45]
13. Yuuwaku [3:25]
14. Dasshutsu [6:11]
15. Kami Osen Bokumetsu Undou [0:13]
[/spoiler]
Проверка:
<div class="sp-wrap">
<div class="sp-head folded">1993 - OST</div>
<div class="sp-body">
<div class="sp-wrap">
<div class="sp-head folded">ЕАС Лог</div>
<div class="sp-body">

Exact Audio Copy V1.3 from 2. September 2016

EAC extraction logfile from 2. November 2016, 21:19

Michiaki Kato / Big Wars OST

Used drive : PLEXTOR CD-R PREMIUM2 Adapter: 1 ID: 1

Read mode : SecureUtilize accurate stream : YesDefeat audio cache : YesMake use of C2 pointers : No

Read offset correction : 30Overread into Lead-In and Lead-Out : YesFill up missing offset samples with silence : YesDelete leading and trailing silent blocks : NoNull samples used in CRC calculations : YesUsed interface : Native Win32 interface for Win NT & 2000Gap handling : Not detected, thus appended to previous track

Used output format : User Defined EncoderSelected bitrate : 1024 kBit/sQuality : HighAdd ID3 tag : NoCommand line compressor : C:\Program Files (x86)\Exact Audio Copy RIP\Flac\flac.exeAdditional command line options : -V -8 -T "Genre=%genre%" -T "Artist=%artist%" -T "Title=%title%" -T "Album=%albumtitle%" -T "Date=%year%" -T "Tracknumber=%tracknr%" -T "Comment=%comment%" %source%

TOC of the extracted CD

Track | Start | Length | Start sector | End sector --------------------------------------------------------- 1 | 0:00.00 | 3:51.70 | 0 | 17394 2 | 3:51.70 | 3:07.05 | 17395 | 31424 3 | 6:59.00 | 1:22.57 | 31425 | 37631 4 | 8:21.57 | 3:23.53 | 37632 | 52909 5 | 11:45.35 | 2:27.10 | 52910 | 63944 6 | 14:12.45 | 3:23.45 | 63945 | 79214 7 | 17:36.15 | 1:53.65 | 79215 | 87754 8 | 19:30.05 | 2:43.15 | 87755 | 99994 9 | 22:13.20 | 1:41.07 | 99995 | 107576 10 | 23:54.27 | 0:52.25 | 107577 | 111501 11 | 24:46.52 | 2:24.35 | 111502 | 122336 12 | 27:11.12 | 2:45.30 | 122337 | 134741 13 | 29:56.42 | 3:24.48 | 134742 | 150089 14 | 33:21.15 | 6:11.17 | 150090 | 177931 15 | 39:32.32 | 0:13.05 | 177932 | 178911

Track 1

Filename D:\Work\RIPs\01 - Gekichin.wav

Peak level 74.3 % Extraction speed 8.9 X Track quality 100.0 % Test CRC 210D3D4B Copy CRC 210D3D4B Track not present in AccurateRip database Copy OK

Track 2

Filename D:\Work\RIPs\02 - Fukkatsu.wav

Peak level 90.1 % Extraction speed 9.5 X Track quality 100.0 % Test CRC AD404899 Copy CRC AD404899 Track not present in AccurateRip database Copy OK

Track 3

Filename D:\Work\RIPs\03 - Saikai.wav

Peak level 35.7 % Extraction speed 9.2 X Track quality 100.0 % Test CRC C5F24195 Copy CRC C5F24195 Track not present in AccurateRip database Copy OK

Track 4

Filename D:\Work\RIPs\04 - Tenjoukai.wav

Peak level 67.7 % Extraction speed 10.3 X Track quality 100.0 % Test CRC D90B2AC5 Copy CRC D90B2AC5 Track not present in AccurateRip database Copy OK

Track 5

Filename D:\Work\RIPs\05 - Kakutou.wav

Peak level 84.9 % Extraction speed 10.6 X Track quality 100.0 % Test CRC 37315F22 Copy CRC 37315F22 Track not present in AccurateRip database Copy OK

Track 6

Filename D:\Work\RIPs\06 - Shutsugeki.wav

Peak level 67.1 % Extraction speed 11.3 X Track quality 100.0 % Test CRC EC909878 Copy CRC EC909878 Track not present in AccurateRip database Copy OK

Track 7

Filename D:\Work\RIPs\07 - Kaimetsu.wav

Peak level 67.3 % Extraction speed 8.8 X Track quality 99.9 % Test CRC 3CC3B808 Copy CRC 3CC3B808 Track not present in AccurateRip database Copy OK

Track 8

Filename D:\Work\RIPs\08 - Gekisen.wav

Peak level 79.2 % Extraction speed 11.8 X Track quality 100.0 % Test CRC FA846FFF Copy CRC FA846FFF Track not present in AccurateRip database Copy OK

Track 9

Filename D:\Work\RIPs\09 - Sakuteki.wav

Peak level 99.0 % Extraction speed 11.5 X Track quality 100.0 % Test CRC D9FA802D Copy CRC D9FA802D Track not present in AccurateRip database Copy OK

Track 10

Filename D:\Work\RIPs\10 - Kami Osen.wav

Peak level 73.9 % Extraction speed 10.4 X Track quality 100.0 % Test CRC 12648DBA Copy CRC 12648DBA Track not present in AccurateRip database Copy OK

Track 11

Filename D:\Work\RIPs\11 - Jigoku.wav

Peak level 82.0 % Extraction speed 12.3 X Track quality 100.0 % Test CRC B411D528 Copy CRC B411D528 Track not present in AccurateRip database Copy OK

Track 12

Filename D:\Work\RIPs\12 - Shitou.wav

Peak level 94.8 % Extraction speed 12.8 X Track quality 100.0 % Test CRC 2616C37F Copy CRC 2616C37F Track not present in AccurateRip database Copy OK

Track 13

Filename D:\Work\RIPs\13 - Yuuwaku.wav

Peak level 87.4 % Extraction speed 13.4 X Track quality 100.0 % Test CRC A9E6CD57 Copy CRC A9E6CD57 Track not present in AccurateRip database Copy OK

Track 14

Filename D:\Work\RIPs\14 - Dasshutsu.wav

Peak level 78.1 % Extraction speed 14.5 X Track quality 100.0 % Test CRC 1E1463DB Copy CRC 1E1463DB Track not present in AccurateRip database Copy OK

Track 15

Filename D:\Work\RIPs\15 - Kami Osen Bokumetsu Undou.wav

Peak level 65.6 % Extraction speed 6.6 X Track quality 100.0 % Test CRC 4EE3BE1D Copy CRC 4EE3BE1D Track not present in AccurateRip database Copy OK

None of the tracks are present in the AccurateRip database

No errors occurred

End of status report

---- CUETools DB Plugin V2.1.6

[CTDB TOCID: oM74y49Aompgl1WqpHPZg6D8VUM-] foundSubmit result: already submittedTrack | CTDB Status 1 | (1/1) Accurately ripped 2 | (1/1) Accurately ripped 3 | (1/1) Accurately ripped 4 | (1/1) Accurately ripped 5 | (1/1) Accurately ripped 6 | (1/1) Accurately ripped 7 | (1/1) Accurately ripped 8 | (1/1) Accurately ripped 9 | (1/1) Accurately ripped 10 | (1/1) Accurately ripped 11 | (1/1) Accurately ripped 12 | (1/1) Accurately ripped 13 | (1/1) Accurately ripped 14 | (1/1) Accurately ripped 15 | (1/1) Accurately ripped

==== Log checksum 4F22EF955007E66562C30F4FF161467EDDC560A7BF834F0578E71417ADCFB6C4 ====
-----------------------

DON'T MODIFY THIS FILE

-----------------------

PERFORMER: auCDtect Task Manager, ver. 1.6.0 RC1 build 1.6.0.1Copyright (c) 2008-2010 y-soft. All rights reservedhttp://y-soft.org

ANALYZER: auCDtect: CD records authenticity detector, version 0.8.2Copyright (c) 2004 Oleg Berngardt. All rights reserved.Copyright (c) 2004 Alexander Djourik. All rights reserved.

FILE: 01 - Gekichin.flac Size: 18245957 Hash: 971E54826656778F7D555C11B71EFCFE Accuracy: -m0 Conclusion: CDDA 99% Signature: BECD8FE5E71FE6AF2961D61D59434DF938AAA154FILE: 15 - Kami Osen Bokumetsu Undou.flac Size: 913113 Hash: 99FBD707F28F9787590B8C744042E80C Accuracy: -m0 Conclusion: CDDA 100% Signature: 681E59BF8A72E4B0F3C79B4416E8752ED4EE64E5FILE: 14 - Dasshutsu.flac Size: 32983777 Hash: 6256E81DB14F6F8AC250890A687708AF Accuracy: -m0 Conclusion: CDDA 100% Signature: 1D2840A21D14C465FF4F986792D4F9E5A9D747AEFILE: 13 - Yuuwaku.flac Size: 19484691 Hash: 580E6F23C2A5B0935E7E0C1C6C378180 Accuracy: -m0 Conclusion: CDDA 99% Signature: BDC1D3F4C27BF7A8C7B170B2365B2EA8B33D0DC5FILE: 12 - Shitou.flac Size: 16042443 Hash: 57B6D3D55987ED4C914668B5C9A92AE3 Accuracy: -m0 Conclusion: CDDA 100% Signature: B0F43707D59EF6678EB589242B7E49F9F3A5F884FILE: 11 - Jigoku.flac Size: 11314133 Hash: 98F060AC14FE8A273465045F70FC148A Accuracy: -m0 Conclusion: CDDA 100% Signature: E4EF780E79548C1BEBE7AA1D5CC0095F831F24E0FILE: 10 - Kami Osen.flac Size: 4455763 Hash: BD36DB56BE169F58556122B7C869C5A4 Accuracy: -m0 Conclusion: CDDA 100% Signature: 64A4FDB7923D4810E33264392D110E270C439097FILE: 09 - Sakuteki.flac Size: 8998597 Hash: 2AE28CEB833833B763AB9039FA3BCF3D Accuracy: -m0 Conclusion: CDDA 100% Signature: 9CBD89A73430FCDEB5B435198485A2263D69DA8FFILE: 08 - Gekisen.flac Size: 14160766 Hash: 74CE4C5266CDED4B48E9297017CB1A96 Accuracy: -m0 Conclusion: CDDA 100% Signature: 65607D3614DAE167DAEF74088D09F7FE3CCBB917FILE: 07 - Kaimetsu.flac Size: 10125893 Hash: 041452E4BFB5E37FB4D9E34EB27F10A1 Accuracy: -m0 Conclusion: CDDA 100% Signature: EC2BB0A08279F1AB04ECDE58887453FF5356793AFILE: 06 - Shutsugeki.flac Size: 17928761 Hash: 4D36D1666862A78CEB6DF505592A49EE Accuracy: -m0 Conclusion: CDDA 99% Signature: C507C7A0C6CC9A319E31816E4EEA3091ABEE7E0DFILE: 05 - Kakutou.flac Size: 13466156 Hash: 277BC46E25230333327026B2EC809C8F Accuracy: -m0 Conclusion: CDDA 100% Signature: A3D4D4AABB2699A9206FBA092FE6C5D8518933C5FILE: 04 - Tenjoukai.flac Size: 16261740 Hash: 5CD8F9FA0B6C23220A5831792EB8D2AF Accuracy: -m0 Conclusion: CDDA 100% Signature: 96AD96AA8CA4ACE27FD511C78F0BA34D5D73CA55FILE: 03 - Saikai.flac Size: 4911354 Hash: 2F93D115B0D8FB4A65F97751F300DE4C Accuracy: -m0 Conclusion: CDDA 100% Signature: A6546CC0551169DB78C4198AF50E15409BCB790EFILE: 02 - Fukkatsu.flac Size: 16405013 Hash: D9BC8AC6B4E530D2B2AAD0889E84921F Accuracy: -m0 Conclusion: CDDA 100% Signature: 50A6A17E9638B15A1F13629FFE6DDF06B392A9E5
</div>
</div>
</div>
</div>
Приятного прослушивания

Трекер:  [ 24-Мар-2017 07:30 ]

  

Скачать .torrent

Размер .torrent файла 17 KB


Размер: 196 MB
Хэш (hash) релиза: 58dfdc1f1e53759839dcf7a3190d59a6479a6356

Еще никто не оставлял запись к записи скачать торрент Big Wars Большие Войны - 1993 г., FLAC . Будь первым!

!Обратная связь