Angrezi Mein Kehte Hain | 48996 Teman Tapi Menikah (2018) | Watch L'Homme qui tua Don Quichotte 1080p HDRip Torrent gratuity

Скачать через торрент [VIDEO] Преступник Criminal бесплатно русская версия torrent активатор

Статистика раздачи
Размер:  2.37 GB   |    Зарегистрирован:  1 год 4 месяца   |    .torrent скачан:  33 раза   |   
Раздают:  1  
   
загрузка...
 
Автор Сообщение

Galfimbul

avatar Galfimbul


Преступник / Criminal
«The CIA's last hope is in the mind of a criminal»
Премьера: 5 апреля 2016
Оригинальное название: Criminal
Страна: США, Великобритания
Жанр: фантастика, боевик, триллер, драма, криминал, детектив
Возраст: 18+

Режиссер: Ариэль Вромен / Ariel Vromen

В ролях: Кевин Костнер, Гэри Олдман, Томми Ли Джонс, Райан Рейнольдс, Элис Ив, Галь Гадот, Хорди Молья, Майкл Питт, Амори Ноласко, Антье Трауэ, Скотт Эдкинс, Лара Дэкаро, Фредди Бош, Эммануэль Имани, Гарри Хэппл, Даг Кокл, Колин Сэлмон, Стив Николсон

Описание: В последней отчаянной попытке остановить катастрофу мирового масштаба генетики осуществляют невероятную операцию по вживлению воспоминаний и умений погибшего оперативника ЦРУ в тело опасного заключенного с надеждой, что тот доведет до конца прерванную миссию агента.

Продолжительность: 01:53:34
Перевод: Дублированный [Лицензия]
Оригинальная дорожка: есть

Автор рипа:

Качество видео: BDRip Исходник: Blu-Ray Remux (1080p) Формат: mp4
Видео кодек: MPEG-4 AVC Аудио кодек: AAC
Видео: 1280x536 (2.40:1) at 24.000 fps, AVC at 2 732 kbps avg, 0.166 bit/pixel
Аудио №1 Rus: 48.0 KHz, AAC, 2 ch, 128.0 Kbps
Аудио №2 Eng: 48.0 KHz, AAC, 2 ch, 128.0 Kbps
Субтитры: русские (полные), английские (полные)
Навигация по главам: есть
Размер: 2.37 GiB
avs [info]: 1280x536p 1:1 @ 24/1 fps (cfr)
x264 [info]: using SAR=1/1
x264 [info]: using cpu capabilities: MMX2 SSE2Fast SSSE3 Cache64
x264 [info]: profile High, level 4.1
x264 [info]: frame I:1624 Avg QP:14.73 size: 82420
x264 [info]: frame P:36916 Avg QP:18.13 size: 26290
x264 [info]: frame B:124360 Avg QP:19.50 size: 9758
x264 [info]: consecutive B-frames: 2.3% 3.3% 9.0% 26.4% 19.1% 28.8% 6.8% 1.9% 2.3%
x264 [info]: mb I I16..4: 8.1% 73.9% 18.0%
x264 [info]: mb P I16..4: 3.3% 15.8% 1.8% P16..4: 40.1% 19.9% 10.0% 0.0% 0.0% skip: 9.2%
x264 [info]: mb B I16..4: 0.3% 1.2% 0.2% B16..8: 39.4% 8.8% 1.6% direct:11.4% skip:37.1% L0:42.6% L1:48.4% BI: 8.9%
x264 [info]: 8x8 transform intra:74.5% inter:71.2%
x264 [info]: coded y,uvDC,uvAC intra: 69.7% 84.9% 57.0% inter: 25.9% 38.0% 5.8%
x264 [info]: i16 v,h,dc,p: 31% 22% 7% 40%
x264 [info]: i8 v,h,dc,ddl,ddr,vr,hd,vl,hu: 21% 18% 19% 5% 7% 8% 8% 7% 7%
x264 [info]: i4 v,h,dc,ddl,ddr,vr,hd,vl,hu: 27% 21% 12% 5% 9% 8% 8% 6% 5%
x264 [info]: i8c dc,h,v,p: 50% 21% 21% 9%
x264 [info]: Weighted P-Frames: Y:3.9% UV:1.1%
x264 [info]: ref P L0: 49.7% 10.6% 16.7% 7.1% 5.1% 3.8% 3.0% 2.0% 1.9% 0.2% 0.0%
x264 [info]: ref B L0: 78.5% 10.1% 4.8% 2.4% 1.8% 1.3% 0.8% 0.3%
x264 [info]: ref B L1: 93.3% 6.7%
x264 [info]: kb/s:2731.98
encoded 162900 frames, 2.46 fps, 2731.98 kb/s
GeneralComplete name : ...\Prestupnik_2016_KinoGadget.mp4Format : MPEG-4Format profile : Base MediaCodec ID : isom (isom)File size : 2.37 GiBDuration : 1 h 53 minOverall bit rate mode : VariableOverall bit rate : 2 988 kb/sMovie name : Преступник | KinoGadgetPerformer : Ариэль ВроменDirector : Ариэль ВроменActor : Кевин Костнер / Гэри Олдман / Томми Ли Джонс / Райан Рейнольдс / Элис Ив / Галь Гадот / Хорди Молья / Майкл Питт / Амори Ноласко / Антье Трауэ / Скотт Эдкинс / Лара Дэкаро / Фредди Бош / Эммануэль Имани / Гарри Хэппл / Даг Кокл / Колин Сэлмон / Стив НиколсонScreenplay by : Дуглас Кук / Дэвид УайсбергProducer : Крис Бендер / Криста Кэмпбелл / Марк ГиллGenre : Action, Crime, DramaContentType : Short FilmRecorded date : 2016Encoded date : UTC 2017-03-23 08:42:46Tagged date : UTC 2017-03-23 09:17:21Cover : YesContentRating : mpaa|R|400|LongDescription : В последней отчаянной попытке остановить катастрофу мирового масштаба генетики осуществляют невероятную операцию по вживлению воспоминаний и умений погибшего оперативника ЦРУ в тело опасного заключенного с надеждой, что тот доведет до конца прерванную миссию агента.HDVideo : Yes

VideoID : 1Format : AVCFormat/Info : Advanced Video CodecFormat profile : [email protected] settings, CABAC : YesFormat settings, ReFrames : 9 framesCodec ID : avc1Codec ID/Info : Advanced Video CodingDuration : 1 h 53 minBit rate : 2 732 kb/sMaximum bit rate : 13.0 Mb/sWidth : 1 280 pixelsHeight : 536 pixelsDisplay aspect ratio : 2.40:1Frame rate mode : ConstantFrame rate : 24.000 FPSColor space : YUVChroma subsampling : 4:2:0Bit depth : 8 bitsScan type : ProgressiveBits/(Pixel*Frame) : 0.166Stream size : 2.16 GiB (91%)Writing library : x264 core 148 r2638 7599210Encoding settings : cabac=1 / ref=9 / deblock=1:-2:-1 / analyse=0x3:0x113 / me=umh / subme=7 / psy=1 / psy_rd=1.00:0.00 / mixed_ref=1 / me_range=32 / chroma_me=1 / trellis=2 / 8x8dct=1 / cqm=0 / deadzone=21,11 / fast_pskip=0 / chroma_qp_offset=-2 / threads=3 / lookahead_threads=1 / sliced_threads=0 / nr=0 / decimate=1 / interlaced=0 / bluray_compat=0 / constrained_intra=0 / bframes=8 / b_pyramid=2 / b_adapt=2 / b_bias=0 / direct=1 / weightb=1 / open_gop=0 / weightp=2 / keyint=250 / keyint_min=25 / scenecut=40 / intra_refresh=0 / rc_lookahead=60 / rc=crf / mbtree=1 / crf=18.0 / qcomp=0.60 / qpmin=0 / qpmax=69 / qpstep=4 / vbv_maxrate=62500 / vbv_bufsize=78125 / crf_max=0.0 / nal_hrd=none / filler=0 / ip_ratio=1.40 / aq=1:1.00Encoded date : UTC 2017-03-23 01:04:37Tagged date : UTC 2017-03-23 08:43:54

Audio #1ID : 2Format : AACFormat/Info : Advanced Audio CodecFormat profile : LCCodec ID : 40Duration : 1 h 53 minBit rate mode : VariableBit rate : 128 kb/sMaximum bit rate : 135 kb/sChannel(s) : 2 channelsChannel positions : Front: L RSampling rate : 48.0 kHzFrame rate : 46.875 FPS (1024 spf)Compression mode : LossyStream size : 104 MiB (4%)Title : Dub [Licebse]Language : RussianEncoded date : UTC 2017-03-23 01:13:06Tagged date : UTC 2017-03-23 08:43:54

Audio #2ID : 3Format : AACFormat/Info : Advanced Audio CodecFormat profile : LCCodec ID : 40Duration : 1 h 53 minBit rate mode : VariableBit rate : 128 kb/sMaximum bit rate : 135 kb/sChannel(s) : 2 channelsChannel positions : Front: L RSampling rate : 48.0 kHzFrame rate : 46.875 FPS (1024 spf)Compression mode : LossyStream size : 104 MiB (4%)Title : OriginalLanguage : EnglishEncoded date : UTC 2017-03-23 06:13:23Tagged date : UTC 2017-03-23 08:43:54

Text #1ID : 4Format : Timed TextCodec ID : tx3gDuration : 1 h 44 minBit rate mode : VariableBit rate : 64 b/sStream size : 48.6 KiB (0%)Title : FullLanguage : RussianForced : NoEncoded date : UTC 2017-03-23 08:43:54Tagged date : UTC 2017-03-23 08:43:54

Text #2ID : 5Format : Timed TextCodec ID : tx3gDuration : 1 h 44 minBit rate mode : VariableBit rate : 51 b/sStream size : 38.6 KiB (0%)Title : FullLanguage : EnglishForced : NoEncoded date : UTC 2017-03-23 08:43:54Tagged date : UTC 2017-03-23 08:43:54

Menu00:00:00.000 : Chapter 0100:10:41.264 : Chapter 0200:15:32.264 : Chapter 0300:23:45.339 : Chapter 0400:30:56.561 : Chapter 0500:36:01.367 : Chapter 0600:45:36.314 : Chapter 0700:48:48.506 : Chapter 0800:54:51.453 : Chapter 0901:01:46.244 : Chapter 1001:08:32.608 : Chapter 1101:16:11.608 : Chapter 1201:22:20.143 : Chapter 1301:29:52.011 : Chapter 1401:36:46.091 : Chapter 1501:42:08.497 : Chapter 1601:53:34.599 : Chapter 17


Трекер:  [ 23-Мар-2017 11:30 ]

  

Скачать .torrent

Размер .torrent файла 12 KB


Размер: 2.37 GB
Хэш (hash) релиза: 910711c22c1714ed092bfbe4f7f84a2553ed4648

Еще никто не оставлял запись к записи скачать торрент [VIDEO] Преступник Criminal . Будь первым!

!Обратная связь