Book Club | The King Of Food | Temporada 4

Скачать через торрент [MULT] Внимание, обезьянки! Сборник бесплатно русская версия torrent активатор

Статистика раздачи
Размер:  381 MB   |    Зарегистрирован:  1 год 3 месяца   |    .torrent скачан:  26 раз   |   
Раздают:  1  
   
загрузка...
 
Автор Сообщение

Galfimbul

avatar Galfimbul


Внимание, обезьянки! СборникКак обезьянки обедали / Обезьянки в опере / Обезьянки и грабители / Обезьянки, вперед! / Осторожно, обезьянки!

Год выпуска: 1984-1995
Страна: СССР
Жанр: мультфильм, короткометражка, детский
Продолжительность: 00:09:05, 00:09:11, 00:08:13, 00:07:39, 00:09:30
Перевод: Не требуется
Cубтитры: нет
Режиссер: Леонид Шварцман, Майя Мирошкина

<div class="post-box" style="border-color: #F86926;">1. Как обезьянки обедали (1984)
Описание: Приключения маленьких обезьянок, тайком от мамы убежавших из зоопарка в город.
Релиз группы </div>
<div class="post-box" style="border-color: #F86926;">2. Обезьянки в опере (1995)
Описание: Тигр вместе с мамой-обезьянкой пошёл в театр на «Отелло». Из-за шаловливых обезьянок актриса-Дездемона сбежала, и по просьбе режиссера мама-обезьяна заменяет её.
Релиз группы </div>
<div class="post-box" style="border-color: #F86926;">3. Обезьянки и грабители (1985)
Описание: Гуляя по улице, маленькие обезьянки стали свидетелями ограбления магазина, но они не растерялись и остановили злоумышленников….
Релиз группы </div>
<div class="post-box" style="border-color: #F86926;">4. Обезьянки, вперед! (1993)
Описание: Мультфильм из серии приключений про озорных и непоседливых обезьянок.
Релиз группы </div>
<div class="post-box" style="border-color: #F86926;">5. Осторожно, обезьянки! (1984)
Описание: Приключения маленьких обезьянок, тайком от мамы убежавших из зоопарка в город.
Релиз группы
</div>
Качество:DVDRip / рип с DVD5 "ТВИК"
Формат: MP4
Видео кодек: H.264
Аудио кодек: AAC
<div class="post-box" style="border-color: #F86926;">Как обезьянки обедали
Видео: 472x360 AR:1.31 1080 kbps 25 fps
Аудио: 2ch 48 kHz 128 kbps</div>
<div class="post-box" style="border-color: #F86926;">Обезьянки в опере
Видео: 468x360 AR:1.3 1080 kbps 25 fps
Аудио: 2ch 48 kHz 128 kbps</div>
<div class="post-box" style="border-color: #F86926;">Обезьянки и грабители
Видео: 474x360 AR:1.32 1080 kbps 25 fps
Аудио: 2ch 48 kHz 128 kbps</div>
<div class="post-box" style="border-color: #F86926;">Обезьянки, вперед!
Видео: 466x360 AR:1.29 1080 kbps 25 fps
Аудио: 2ch 48 kHz 128 kbps</div>
<div class="post-box" style="border-color: #F86926;">Осторожно, обезьянки!
Видео: 476x360 AR:1.32 1080 kbps 25 fps
Аудио: 2ch 48 kHz 128 kbps</div>
<div class="sp-wrap">
<div class="sp-head folded">Logx264</div>
<div class="sp-body">avs [info]: 472x360p 1:1 @ 25/1 fps (cfr)
x264 [info]: using SAR=1/1
x264 [info]: using cpu capabilities: MMX2 SSE2Fast SSSE3 SSE4.2 AVX FMA3 AVX2 LZCNT BMI2
x264 [info]: profile High, level 4.1

x264 [info]: frame I:128 Avg QP:22.12 size: 22321
x264 [info]: frame P:3071 Avg QP:25.32 size: 9273
x264 [info]: frame B:10436 Avg QP:26.58 size: 4055
x264 [info]: consecutive B-frames: 1.8% 2.4% 11.3% 33.7% 19.2% 13.4% 5.2% 5.4% 3.2% 1.8% 1.4% 1.1%
x264 [info]: mb I I16..4: 2.0% 73.0% 25.0%
x264 [info]: mb P I16..4: 0.7% 11.8% 2.6% P16..4: 38.3% 35.8% 9.3% 1.1% 0.1% skip: 0.2%
x264 [info]: mb B I16..4: 0.1% 1.3% 0.3% B16..8: 43.9% 25.2% 3.7% direct: 8.2% skip:17.3% L0:53.7% L1:39.6% BI: 6.7%
x264 [info]: 8x8 transform intra:77.1% inter:72.0%
x264 [info]: direct mvs spatial:96.8% temporal:3.2%
x264 [info]: coded y,uvDC,uvAC intra: 92.1% 90.9% 61.1% inter: 40.9% 57.6% 9.0%
x264 [info]: i16 v,h,dc,p: 20% 52% 4% 23%
x264 [info]: i8 v,h,dc,ddl,ddr,vr,hd,vl,hu: 9% 8% 5% 12% 15% 13% 14% 11% 12%
x264 [info]: i4 v,h,dc,ddl,ddr,vr,hd,vl,hu: 12% 13% 4% 9% 14% 12% 13% 10% 13%
x264 [info]: i8c dc,h,v,p: 33% 30% 20% 17%
x264 [info]: Weighted P-Frames: Y:47.3% UV:37.8%
x264 [info]: ref P L0: 36.0% 9.6% 14.6% 9.0% 6.9% 6.0% 5.1% 3.4% 3.0% 2.7% 2.5% 1.2% 0.0%
x264 [info]: ref B L0: 55.4% 15.1% 8.8% 5.3% 4.2% 3.8% 3.1% 2.2% 1.4% 0.6%
x264 [info]: ref B L1: 91.7% 8.3%
x264 [info]: kb/s:1080.31

encoded 13635 frames, 21.64 fps, 1080.33 kb/s
General
Complete name : D:\Torrents\Внимание, обезьянки!.1984-1995.DVDRip.x264.640x\Как обезьянки обедали.mp4
Format : MPEG-4
Format profile : Base Media
Codec ID : isom (isom/avc1)
File size : 79.5 MiB
Duration : 9 min 5 s
Overall bit rate mode : Variable
Overall bit rate : 1 223 kb/s
Movie name : Как обезьянки обедали
Genre : Animation
ContentType : Short Film
Encoded date : UTC 2017-03-22 10:01:35
Tagged date : UTC 2017-03-22 10:01:37
Writing application : MkvToMp4 version: 0.224 (x64)
Cover : Yes
Comment : rip by Frost O.S

Video
ID : 1
Format : AVC
Format/Info : Advanced Video Codec
Format profile : [email protected]
Format settings, CABAC : Yes
Format settings, ReFrames : 11 frames
Codec ID : avc1
Codec ID/Info : Advanced Video Coding
Duration : 9 min 5 s
Bit rate : 1 080 kb/s
Maximum bit rate : 1 893 kb/s
Width : 472 pixels
Height : 360 pixels
Display aspect ratio : 4:3
Frame rate mode : Constant
Frame rate : 25.000 FPS
Color space : YUV
Chroma subsampling : 4:2:0
Bit depth : 8 bits
Scan type : Progressive
Bits/(Pixel*Frame) : 0.254
Stream size : 70.2 MiB (88%)
Writing library : x264 core 148 r2744 b97ae06
Encoding settings : cabac=1 / ref=11 / deblock=1:-1:-1 / analyse=0x3:0x133 / me=umh / subme=11 / psy=1 / psy_rd=0.70:0.00 / mixed_ref=1 / me_range=48 / chroma_me=1 / trellis=2 / 8x8dct=1 / cqm=0 / deadzone=21,11 / fast_pskip=0 / chroma_qp_offset=-2 / threads=6 / lookahead_threads=1 / sliced_threads=0 / nr=0 / decimate=0 / interlaced=0 / bluray_compat=0 / constrained_intra=0 / bframes=11 / b_pyramid=2 / b_adapt=2 / b_bias=0 / direct=3 / weightb=1 / open_gop=0 / weightp=2 / keyint=250 / keyint_min=25 / scenecut=40 / intra_refresh=0 / rc=2pass / mbtree=0 / bitrate=1080 / ratetol=1.0 / qcomp=0.60 / qpmin=0 / qpmax=69 / qpstep=4 / cplxblur=20.0 / qblur=0.5 / ip_ratio=1.40 / pb_ratio=1.30 / aq=1:1.00
Language : English
Encoded date : UTC 2017-03-22 10:01:35
Tagged date : UTC 2017-03-22 10:01:36
Color range : Limited
Color primaries : BT.601 PAL
Transfer characteristics : BT.470 System B, BT.470 System G
Matrix coefficients : BT.601

Audio
ID : 2
Format : AAC
Format/Info : Advanced Audio Codec
Format profile : LC
Codec ID : 40
Duration : 9 min 5 s
Bit rate mode : Variable
Bit rate : 128 kb/s
Maximum bit rate : 130 kb/s
Channel(s) : 2 channels
Channel positions : Front: L R
Sampling rate : 48.0 kHz
Frame rate : 46.875 FPS (1024 spf)
Compression mode : Lossy
Stream size : 8.32 MiB (10%)
Language : Russian
Default : Yes
Alternate group : 1
Encoded date : UTC 2017-03-22 10:01:36
Tagged date : UTC 2017-03-22 10:01:36
</div>
</div>
<div class="sp-wrap">
<div class="sp-head folded">Logx264</div>
<div class="sp-body">avs [info]: 468x360p 1:1 @ 25/1 fps (cfr)
x264 [info]: using SAR=1/1
x264 [info]: using cpu capabilities: MMX2 SSE2Fast SSSE3 SSE4.2 AVX FMA3 AVX2 LZCNT BMI2
x264 [info]: profile High, level 4.1

x264 [info]: frame I:129 Avg QP:26.36 size: 30670
x264 [info]: frame P:3208 Avg QP:29.18 size: 8726
x264 [info]: frame B:10444 Avg QP:30.75 size: 4073
x264 [info]: consecutive B-frames: 1.9% 2.2% 17.0% 28.8% 15.3% 19.9% 10.9% 2.1% 0.5% 1.2% 0.0% 0.2%
x264 [info]: mb I I16..4: 1.7% 71.1% 27.2%
x264 [info]: mb P I16..4: 1.2% 9.6% 2.7% P16..4: 33.6% 34.7% 14.9% 2.2% 0.2% skip: 0.9%
x264 [info]: mb B I16..4: 0.3% 5.1% 0.4% B16..8: 33.9% 22.2% 4.2% direct: 7.8% skip:26.3% L0:48.9% L1:39.7% BI:11.5%
x264 [info]: 8x8 transform intra:80.2% inter:60.5%
x264 [info]: direct mvs spatial:95.1% temporal:4.9%
x264 [info]: coded y,uvDC,uvAC intra: 90.8% 50.5% 21.2% inter: 33.3% 16.0% 2.5%
x264 [info]: i16 v,h,dc,p: 25% 26% 16% 32%
x264 [info]: i8 v,h,dc,ddl,ddr,vr,hd,vl,hu: 10% 5% 8% 13% 15% 14% 13% 12% 11%
x264 [info]: i4 v,h,dc,ddl,ddr,vr,hd,vl,hu: 16% 16% 5% 8% 12% 10% 11% 9% 12%
x264 [info]: i8c dc,h,v,p: 29% 38% 20% 12%
x264 [info]: Weighted P-Frames: Y:36.4% UV:14.0%
x264 [info]: ref P L0: 38.0% 10.6% 14.5% 8.7% 6.6% 5.4% 4.8% 3.0% 2.7% 2.5% 2.3% 0.9% 0.0%
x264 [info]: ref B L0: 70.5% 11.1% 5.8% 3.2% 2.6% 2.3% 1.9% 1.3% 0.9% 0.5%
x264 [info]: ref B L1: 94.7% 5.3%
x264 [info]: kb/s:1081.01

encoded 13781 frames, 23.53 fps, 1081.02 kb/s
General
Complete name : D:\Torrents\Внимание, обезьянки!.1984-1995.DVDRip.x264.640x\Обезьянки в опере.mp4
Format : MPEG-4
Format profile : Base Media
Codec ID : isom (isom/avc1)
File size : 80.2 MiB
Duration : 9 min 11 s
Overall bit rate mode : Variable
Overall bit rate : 1 221 kb/s
Movie name : Обезьянки в опере
Genre : Animation
ContentType : Short Film
Encoded date : UTC 2017-03-21 12:17:02
Tagged date : UTC 2017-03-21 12:17:03
Writing application : MkvToMp4 version: 0.224 (x64)
Cover : Yes
Comment : rip by Frost O.S

Video
ID : 1
Format : AVC
Format/Info : Advanced Video Codec
Format profile : [email protected]
Format settings, CABAC : Yes
Format settings, ReFrames : 11 frames
Codec ID : avc1
Codec ID/Info : Advanced Video Coding
Duration : 9 min 11 s
Bit rate : 1 080 kb/s
Maximum bit rate : 1 908 kb/s
Width : 468 pixels
Height : 360 pixels
Display aspect ratio : 4:3
Frame rate mode : Constant
Frame rate : 25.000 FPS
Color space : YUV
Chroma subsampling : 4:2:0
Bit depth : 8 bits
Scan type : Progressive
Bits/(Pixel*Frame) : 0.256
Stream size : 71.0 MiB (89%)
Writing library : x264 core 148 r2744 b97ae06
Encoding settings : cabac=1 / ref=11 / deblock=1:-1:-1 / analyse=0x3:0x133 / me=umh / subme=11 / psy=1 / psy_rd=0.70:0.00 / mixed_ref=1 / me_range=48 / chroma_me=1 / trellis=2 / 8x8dct=1 / cqm=0 / deadzone=21,11 / fast_pskip=0 / chroma_qp_offset=-2 / threads=6 / lookahead_threads=1 / sliced_threads=0 / nr=0 / decimate=0 / interlaced=0 / bluray_compat=0 / constrained_intra=0 / bframes=11 / b_pyramid=2 / b_adapt=2 / b_bias=0 / direct=3 / weightb=1 / open_gop=0 / weightp=2 / keyint=250 / keyint_min=25 / scenecut=40 / intra_refresh=0 / rc=2pass / mbtree=0 / bitrate=1080 / ratetol=1.0 / qcomp=0.60 / qpmin=0 / qpmax=69 / qpstep=4 / cplxblur=20.0 / qblur=0.5 / ip_ratio=1.40 / pb_ratio=1.30 / aq=1:1.00
Language : English
Encoded date : UTC 2017-03-21 12:17:02
Tagged date : UTC 2017-03-21 12:17:02
Color range : Limited
Color primaries : BT.601 PAL
Transfer characteristics : BT.470 System B, BT.470 System G
Matrix coefficients : BT.601

Audio
ID : 2
Format : AAC
Format/Info : Advanced Audio Codec
Format profile : LC
Codec ID : 40
Duration : 9 min 11 s
Bit rate mode : Variable
Bit rate : 128 kb/s
Maximum bit rate : 131 kb/s
Channel(s) : 2 channels
Channel positions : Front: L R
Sampling rate : 48.0 kHz
Frame rate : 46.875 FPS (1024 spf)
Compression mode : Lossy
Stream size : 8.41 MiB (10%)
Language : Russian
Default : Yes
Alternate group : 1
Encoded date : UTC 2017-03-21 12:17:02
Tagged date : UTC 2017-03-21 12:17:02
</div>
</div>
<div class="sp-wrap">
<div class="sp-head folded">Logx264</div>
<div class="sp-body">avs [info]: 474x360p 1:1 @ 25/1 fps (cfr)
x264 [info]: using SAR=1/1
x264 [info]: using cpu capabilities: MMX2 SSE2Fast SSSE3 SSE4.2 AVX FMA3 AVX2 LZCNT BMI2
x264 [info]: profile High, level 4.1

x264 [info]: frame I:107 Avg QP:21.48 size: 23188
x264 [info]: frame P:2730 Avg QP:24.85 size: 9545
x264 [info]: frame B:9505 Avg QP:26.12 size: 4011
x264 [info]: consecutive B-frames: 1.7% 2.4% 10.4% 33.2% 18.6% 13.2% 6.1% 5.1% 3.1% 2.3% 2.0% 1.9%
x264 [info]: mb I I16..4: 3.1% 71.2% 25.8%
x264 [info]: mb P I16..4: 0.9% 12.7% 2.5% P16..4: 37.2% 35.3% 10.0% 1.2% 0.1% skip: 0.2%
x264 [info]: mb B I16..4: 0.2% 1.2% 0.3% B16..8: 42.5% 24.8% 4.0% direct: 8.2% skip:18.8% L0:52.5% L1:40.1% BI: 7.5%
x264 [info]: 8x8 transform intra:76.2% inter:68.7%
x264 [info]: direct mvs spatial:95.8% temporal:4.2%
x264 [info]: coded y,uvDC,uvAC intra: 92.6% 90.5% 61.1% inter: 39.8% 52.0% 8.1%
x264 [info]: i16 v,h,dc,p: 24% 60% 3% 12%
x264 [info]: i8 v,h,dc,ddl,ddr,vr,hd,vl,hu: 6% 7% 5% 12% 16% 13% 15% 11% 14%
x264 [info]: i4 v,h,dc,ddl,ddr,vr,hd,vl,hu: 11% 11% 3% 9% 14% 12% 14% 11% 15%
x264 [info]: i8c dc,h,v,p: 33% 32% 17% 18%
x264 [info]: Weighted P-Frames: Y:36.9% UV:27.8%
x264 [info]: ref P L0: 33.6% 10.5% 15.6% 8.9% 7.1% 5.9% 5.2% 3.5% 3.1% 2.8% 2.8% 1.0% 0.0%
x264 [info]: ref B L0: 58.0% 14.1% 8.1% 5.1% 3.9% 3.5% 3.0% 2.2% 1.4% 0.7%
x264 [info]: ref B L1: 92.5% 7.5%
x264 [info]: kb/s:1080.34

encoded 12342 frames, 22.27 fps, 1080.35 kb/s
General
Complete name : D:\Torrents\Внимание, обезьянки!.1984-1995.DVDRip.x264.640x\Обезьянки и грабители.mp4
Format : MPEG-4
Format profile : Base Media
Codec ID : isom (isom/avc1)
File size : 71.6 MiB
Duration : 8 min 13 s
Overall bit rate mode : Variable
Overall bit rate : 1 216 kb/s
Movie name : Обезьянки и грабители
Genre : Animation
ContentType : Short Film
Encoded date : UTC 2017-03-21 12:18:05
Tagged date : UTC 2017-03-21 12:18:07
Writing application : MkvToMp4 version: 0.224 (x64)
Comment : rip by Frost O.S

Video
ID : 1
Format : AVC
Format/Info : Advanced Video Codec
Format profile : [email protected]
Format settings, CABAC : Yes
Format settings, ReFrames : 11 frames
Codec ID : avc1
Codec ID/Info : Advanced Video Coding
Duration : 8 min 13 s
Bit rate : 1 080 kb/s
Maximum bit rate : 1 866 kb/s
Width : 474 pixels
Height : 360 pixels
Display aspect ratio : 4:3
Frame rate mode : Constant
Frame rate : 25.000 FPS
Color space : YUV
Chroma subsampling : 4:2:0
Bit depth : 8 bits
Scan type : Progressive
Bits/(Pixel*Frame) : 0.253
Stream size : 63.6 MiB (89%)
Writing library : x264 core 148 r2744 b97ae06
Encoding settings : cabac=1 / ref=11 / deblock=1:-1:-1 / analyse=0x3:0x133 / me=umh / subme=11 / psy=1 / psy_rd=0.70:0.00 / mixed_ref=1 / me_range=48 / chroma_me=1 / trellis=2 / 8x8dct=1 / cqm=0 / deadzone=21,11 / fast_pskip=0 / chroma_qp_offset=-2 / threads=6 / lookahead_threads=1 / sliced_threads=0 / nr=0 / decimate=0 / interlaced=0 / bluray_compat=0 / constrained_intra=0 / bframes=11 / b_pyramid=2 / b_adapt=2 / b_bias=0 / direct=3 / weightb=1 / open_gop=0 / weightp=2 / keyint=250 / keyint_min=25 / scenecut=40 / intra_refresh=0 / rc=2pass / mbtree=0 / bitrate=1080 / ratetol=1.0 / qcomp=0.60 / qpmin=0 / qpmax=69 / qpstep=4 / cplxblur=20.0 / qblur=0.5 / ip_ratio=1.40 / pb_ratio=1.30 / aq=1:1.00
Language : English
Encoded date : UTC 2017-03-21 12:18:05
Tagged date : UTC 2017-03-21 12:18:06
Color range : Limited
Color primaries : BT.601 PAL
Transfer characteristics : BT.470 System B, BT.470 System G
Matrix coefficients : BT.601

Audio
ID : 2
Format : AAC
Format/Info : Advanced Audio Codec
Format profile : LC
Codec ID : 40
Duration : 8 min 13 s
Bit rate mode : Variable
Bit rate : 128 kb/s
Maximum bit rate : 131 kb/s
Channel(s) : 2 channels
Channel positions : Front: L R
Sampling rate : 48.0 kHz
Frame rate : 46.875 FPS (1024 spf)
Compression mode : Lossy
Stream size : 7.53 MiB (11%)
Language : Russian
Default : Yes
Alternate group : 1
Encoded date : UTC 2017-03-21 12:18:06
Tagged date : UTC 2017-03-21 12:18:06
</div>
</div>
<div class="sp-wrap">
<div class="sp-head folded">Logx264</div>
<div class="sp-body">avs [info]: 466x360p 1:1 @ 25/1 fps (cfr)
x264 [info]: using SAR=1/1
x264 [info]: using cpu capabilities: MMX2 SSE2Fast SSSE3 SSE4.2 AVX FMA3 AVX2 LZCNT BMI2
x264 [info]: profile High, level 4.1

x264 [info]: frame I:107 Avg QP:24.77 size: 26826
x264 [info]: frame P:2716 Avg QP:27.65 size: 8064
x264 [info]: frame B:8658 Avg QP:29.25 size: 4307
x264 [info]: consecutive B-frames: 2.4% 2.0% 15.1% 31.3% 16.1% 20.9% 8.6% 2.2% 0.8% 0.4% 0.2% 0.0%
x264 [info]: mb I I16..4: 2.9% 71.3% 25.8%
x264 [info]: mb P I16..4: 1.2% 12.0% 3.2% P16..4: 37.3% 34.3% 10.1% 1.3% 0.1% skip: 0.6%
x264 [info]: mb B I16..4: 0.3% 7.3% 0.5% B16..8: 34.5% 22.3% 3.6% direct: 8.7% skip:22.8% L0:52.4% L1:39.0% BI: 8.6%
x264 [info]: 8x8 transform intra:82.0% inter:65.2%
x264 [info]: direct mvs spatial:94.6% temporal:5.4%
x264 [info]: coded y,uvDC,uvAC intra: 91.4% 49.7% 16.1% inter: 37.2% 20.3% 2.0%
x264 [info]: i16 v,h,dc,p: 21% 33% 14% 32%
x264 [info]: i8 v,h,dc,ddl,ddr,vr,hd,vl,hu: 8% 6% 6% 13% 16% 14% 14% 12% 13%
x264 [info]: i4 v,h,dc,ddl,ddr,vr,hd,vl,hu: 12% 18% 5% 8% 12% 11% 11% 9% 13%
x264 [info]: i8c dc,h,v,p: 26% 47% 16% 11%
x264 [info]: Weighted P-Frames: Y:52.1% UV:23.2%
x264 [info]: ref P L0: 36.3% 11.3% 12.9% 8.6% 6.6% 5.8% 5.0% 3.2% 3.0% 3.0% 2.8% 1.4% 0.0%
x264 [info]: ref B L0: 64.5% 11.3% 6.9% 4.2% 3.5% 3.0% 2.6% 1.8% 1.4% 0.8%
x264 [info]: ref B L1: 93.4% 6.6%
x264 [info]: kb/s:1081.19

encoded 11481 frames, 23.79 fps, 1081.20 kb/s
General
Complete name : D:\Torrents\Внимание, обезьянки!.1984-1995.DVDRip.x264.640x\Обезьянки, вперед!.mp4
Format : MPEG-4
Format profile : Base Media
Codec ID : isom (isom/avc1)
File size : 66.6 MiB
Duration : 7 min 39 s
Overall bit rate mode : Variable
Overall bit rate : 1 217 kb/s
Movie name : Обезьянки, вперед!
Genre : Animation
ContentType : Short Film
Encoded date : UTC 2017-03-21 12:19:08
Tagged date : UTC 2017-03-21 12:19:10
Writing application : MkvToMp4 version: 0.224 (x64)
Comment : rip by Frost O.S

Video
ID : 1
Format : AVC
Format/Info : Advanced Video Codec
Format profile : [email protected]
Format settings, CABAC : Yes
Format settings, ReFrames : 11 frames
Codec ID : avc1
Codec ID/Info : Advanced Video Coding
Duration : 7 min 39 s
Bit rate : 1 080 kb/s
Maximum bit rate : 1 716 kb/s
Width : 466 pixels
Height : 360 pixels
Display aspect ratio : 1.294
Frame rate mode : Constant
Frame rate : 25.000 FPS
Color space : YUV
Chroma subsampling : 4:2:0
Bit depth : 8 bits
Scan type : Progressive
Bits/(Pixel*Frame) : 0.258
Stream size : 59.2 MiB (89%)
Writing library : x264 core 148 r2744 b97ae06
Encoding settings : cabac=1 / ref=11 / deblock=1:-1:-1 / analyse=0x3:0x133 / me=umh / subme=11 / psy=1 / psy_rd=0.70:0.00 / mixed_ref=1 / me_range=48 / chroma_me=1 / trellis=2 / 8x8dct=1 / cqm=0 / deadzone=21,11 / fast_pskip=0 / chroma_qp_offset=-2 / threads=6 / lookahead_threads=1 / sliced_threads=0 / nr=0 / decimate=0 / interlaced=0 / bluray_compat=0 / constrained_intra=0 / bframes=11 / b_pyramid=2 / b_adapt=2 / b_bias=0 / direct=3 / weightb=1 / open_gop=0 / weightp=2 / keyint=250 / keyint_min=25 / scenecut=40 / intra_refresh=0 / rc=2pass / mbtree=0 / bitrate=1080 / ratetol=1.0 / qcomp=0.60 / qpmin=0 / qpmax=69 / qpstep=4 / cplxblur=20.0 / qblur=0.5 / ip_ratio=1.40 / pb_ratio=1.30 / aq=1:1.00
Language : English
Encoded date : UTC 2017-03-21 12:19:08
Tagged date : UTC 2017-03-21 12:19:09
Color range : Limited
Color primaries : BT.601 PAL
Transfer characteristics : BT.470 System B, BT.470 System G
Matrix coefficients : BT.601

Audio
ID : 2
Format : AAC
Format/Info : Advanced Audio Codec
Format profile : LC
Codec ID : 40
Duration : 7 min 39 s
Bit rate mode : Variable
Bit rate : 128 kb/s
Maximum bit rate : 130 kb/s
Channel(s) : 2 channels
Channel positions : Front: L R
Sampling rate : 48.0 kHz
Frame rate : 46.875 FPS (1024 spf)
Compression mode : Lossy
Stream size : 7.01 MiB (11%)
Language : Russian
Default : Yes
Alternate group : 1
Encoded date : UTC 2017-03-21 12:19:08
Tagged date : UTC 2017-03-21 12:19:09
</div>
</div>
<div class="sp-wrap">
<div class="sp-head folded">Logx264</div>
<div class="sp-body">avs [info]: 476x360p 1:1 @ 25/1 fps (cfr)
x264 [info]: using SAR=1/1
x264 [info]: using cpu capabilities: MMX2 SSE2Fast SSSE3 SSE4.2 AVX FMA3 AVX2 LZCNT BMI2
x264 [info]: profile High, level 4.1

x264 [info]: frame I:145 Avg QP:21.77 size: 28864
x264 [info]: frame P:3120 Avg QP:24.56 size: 8125
x264 [info]: frame B:10990 Avg QP:25.89 size: 4320
x264 [info]: consecutive B-frames: 2.0% 2.2% 11.9% 25.1% 12.7% 25.6% 13.1% 4.2% 1.6% 1.1% 0.6% 0.0%
x264 [info]: mb I I16..4: 1.9% 75.8% 22.3%
x264 [info]: mb P I16..4: 1.5% 13.1% 2.2% P16..4: 38.2% 34.7% 9.0% 0.9% 0.1% skip: 0.2%
x264 [info]: mb B I16..4: 0.4% 6.5% 0.3% B16..8: 36.5% 21.5% 3.3% direct:11.8% skip:19.7% L0:51.0% L1:39.9% BI: 9.0%
x264 [info]: 8x8 transform intra:84.4% inter:70.3%
x264 [info]: direct mvs spatial:96.2% temporal:3.8%
x264 [info]: coded y,uvDC,uvAC intra: 89.9% 84.9% 43.8% inter: 39.2% 51.4% 8.5%
x264 [info]: i16 v,h,dc,p: 16% 32% 9% 43%
x264 [info]: i8 v,h,dc,ddl,ddr,vr,hd,vl,hu: 10% 7% 5% 12% 14% 13% 13% 12% 13%
x264 [info]: i4 v,h,dc,ddl,ddr,vr,hd,vl,hu: 14% 10% 4% 9% 13% 12% 12% 11% 14%
x264 [info]: i8c dc,h,v,p: 26% 38% 17% 19%
x264 [info]: Weighted P-Frames: Y:40.5% UV:31.6%
x264 [info]: ref P L0: 36.9% 11.7% 13.5% 8.8% 6.7% 6.0% 4.9% 3.1% 2.7% 2.5% 2.3% 0.9% 0.0%
x264 [info]: ref B L0: 63.3% 12.1% 6.9% 4.5% 3.7% 3.2% 2.7% 1.8% 1.2% 0.5%
x264 [info]: ref B L1: 93.2% 6.8%
x264 [info]: kb/s:1080.43

encoded 14255 frames, 23.74 fps, 1080.44 kb/s
General
Complete name : D:\Torrents\Внимание, обезьянки!.1984-1995.DVDRip.x264.640x\Осторожно, обезьянки!.mp4
Format : MPEG-4
Format profile : Base Media
Codec ID : isom (isom/avc1)
File size : 82.7 MiB
Duration : 9 min 30 s
Overall bit rate mode : Variable
Overall bit rate : 1 216 kb/s
Movie name : Осторожно, обезьянки!
Genre : Animation
ContentType : Short Film
Encoded date : UTC 2017-03-22 10:24:37
Tagged date : UTC 2017-03-22 10:24:41
Writing application : MkvToMp4 version: 0.224 (x64)
Comment : rip by Frost O.S

Video
ID : 1
Format : AVC
Format/Info : Advanced Video Codec
Format profile : [email protected]
Format settings, CABAC : Yes
Format settings, ReFrames : 11 frames
Codec ID : avc1
Codec ID/Info : Advanced Video Coding
Duration : 9 min 30 s
Bit rate : 1 080 kb/s
Maximum bit rate : 1 518 kb/s
Width : 476 pixels
Height : 360 pixels
Display aspect ratio : 4:3
Frame rate mode : Constant
Frame rate : 25.000 FPS
Color space : YUV
Chroma subsampling : 4:2:0
Bit depth : 8 bits
Scan type : Progressive
Bits/(Pixel*Frame) : 0.252
Stream size : 73.4 MiB (89%)
Writing library : x264 core 148 r2744 b97ae06
Encoding settings : cabac=1 / ref=11 / deblock=1:-1:-1 / analyse=0x3:0x133 / me=umh / subme=11 / psy=1 / psy_rd=0.70:0.00 / mixed_ref=1 / me_range=48 / chroma_me=1 / trellis=2 / 8x8dct=1 / cqm=0 / deadzone=21,11 / fast_pskip=0 / chroma_qp_offset=-2 / threads=6 / lookahead_threads=1 / sliced_threads=0 / nr=0 / decimate=0 / interlaced=0 / bluray_compat=0 / constrained_intra=0 / bframes=11 / b_pyramid=2 / b_adapt=2 / b_bias=0 / direct=3 / weightb=1 / open_gop=0 / weightp=2 / keyint=250 / keyint_min=25 / scenecut=40 / intra_refresh=0 / rc=2pass / mbtree=0 / bitrate=1080 / ratetol=1.0 / qcomp=0.60 / qpmin=0 / qpmax=69 / qpstep=4 / cplxblur=20.0 / qblur=0.5 / ip_ratio=1.40 / pb_ratio=1.30 / aq=1:1.00
Language : English
Encoded date : UTC 2017-03-22 10:24:37
Tagged date : UTC 2017-03-22 10:24:40
Color range : Limited
Color primaries : BT.601 PAL
Transfer characteristics : BT.470 System B, BT.470 System G
Matrix coefficients : BT.601

Audio
ID : 2
Format : AAC
Format/Info : Advanced Audio Codec
Format profile : LC
Codec ID : 40
Duration : 9 min 30 s
Bit rate mode : Variable
Bit rate : 128 kb/s
Maximum bit rate : 131 kb/s
Channel(s) : 2 channels
Channel positions : Front: L R
Sampling rate : 48.0 kHz
Frame rate : 46.875 FPS (1024 spf)
Compression mode : Lossy
Stream size : 8.70 MiB (11%)
Language : Russian
Default : Yes
Alternate group : 1
Encoded date : UTC 2017-03-22 10:24:39
Tagged date : UTC 2017-03-22 10:24:40
</div>
</div>

Трекер:  [ 22-Мар-2017 13:30 ]

  

Скачать .torrent

Размер .torrent файла 15 KB


Размер: 381 MB
Хэш (hash) релиза: fddf68cfbe18b5ef25d998291740baeb65b1a06c

Еще никто не оставлял запись к записи скачать торрент [MULT] Внимание, обезьянки! Сборник . Будь первым!

!Обратная связь