HD 720 A Quiet Passion
Kingsman El Circulo De Oro BluRay-Screeener

Скачать через торрент [VIDEO] У холмов есть глаза 2 The Hills Have Eyes II бесплатно русская версия torrent активатор

Статистика раздачи
Размер:  1.75 GB   |    Зарегистрирован:  1 год   |    .torrent скачан:  37 раз   |   
Раздают:  1  
   
загрузка...
 
Автор Сообщение

Galfimbul

avatar Galfimbul


У холмов есть глаза 2 / The Hills Have Eyes II
«Повезет тому, кто умрет быстро...»
Год выпуска: 2007
Оригинальное название: The Hills Have Eyes II
Страна: США
Жанр: ужасы
Возраст: 18+

Режиссер: Мартин Вайз / Martin Weisz

В ролях: Майкл МакМиллиан, Джессика Строуп, Джейкоб Варгас, Флекс Александр, Ли Томпсон Янг, Даниэлла Алонсо, Эрик Эдельштейн, Решад Стрик, Бен Краули, Майкл Бэйли Смит

Описание: Во время учений солдаты Национальной гвардии США делают привал на пограничной заставе в Нью-Мексико и, к своему удивлению, обнаруживают, что там никого нет. Получив сигнал тревоги, исходящий с отдаленной горной возвышенности, группа военных решает отправиться в этот район, чтобы помочь терпящим бедствие. Спасатели не знают, что это местечко когда-то посетила печально известная семья Картеров и что их поджидают кровожадные мутанты-каннибалы…

Продолжительность: 01:29:58
Перевод: Дублированный [Blu-ray CEE]
Оригинальная дорожка: есть

Автор рипа:

Качество видео: BDRip Исходник: Blu-Ray Remux (1080p) Формат: mp4
Видео кодек: MPEG-4 AVC Аудио кодек: AAC
Видео: 1280x544 (2.35:1) at 23.976 fps, AVC at 2 521 kbps avg, 0.151 bit/pixel
Аудио №1 Rus: 48.0 KHz, AAC, 2 ch, 128.0 Kbps
Аудио №2 Eng: 48.0 KHz, AAC, 2 ch, 128.0 Kbps
Субтитры: русские (форсированные, полные), английские (полные)
Навигация по главам: есть
Размер: 1.75 GiB
avs [info]: 1280x544p 1:1 @ 24000/1001 fps (cfr)
x264 [info]: using SAR=1/1
x264 [info]: using cpu capabilities: MMX2 SSE2Fast SSSE3 Cache64
x264 [info]: profile High, level 4.1
x264 [info]: frame I:1421 Avg QP:14.11 size:103611
x264 [info]: frame P:30119 Avg QP:17.39 size: 26374
x264 [info]: frame B:97895 Avg QP:19.81 size: 7757
x264 [info]: consecutive B-frames: 2.9% 3.2% 8.3% 28.7% 18.3% 30.6% 7.9%
x264 [info]: mb I I16..4: 5.3% 77.1% 17.7%
x264 [info]: mb P I16..4: 2.3% 11.5% 1.4% P16..4: 42.3% 22.5% 12.1% 0.0% 0.0% skip: 7.8%
x264 [info]: mb B I16..4: 0.2% 0.8% 0.1% B16..8: 40.0% 8.6% 1.6% direct: 5.5% skip:43.1% L0:44.1% L1:46.0% BI: 9.9%
x264 [info]: 8x8 transform intra:75.3% inter:67.9%
x264 [info]: coded y,uvDC,uvAC intra: 69.5% 81.9% 57.6% inter: 20.2% 24.2% 2.9%
x264 [info]: i16 v,h,dc,p: 50% 15% 9% 26%
x264 [info]: i8 v,h,dc,ddl,ddr,vr,hd,vl,hu: 16% 13% 21% 6% 9% 9% 9% 8% 8%
x264 [info]: i4 v,h,dc,ddl,ddr,vr,hd,vl,hu: 23% 15% 14% 6% 11% 10% 9% 6% 5%
x264 [info]: i8c dc,h,v,p: 57% 17% 17% 9%
x264 [info]: Weighted P-Frames: Y:3.9% UV:2.0%
x264 [info]: ref P L0: 48.7% 10.2% 16.7% 6.6% 5.4% 4.2% 3.6% 2.2% 2.2% 0.3% 0.0%
x264 [info]: ref B L0: 74.6% 11.0% 5.7% 3.0% 2.3% 1.8% 1.1% 0.4%
x264 [info]: ref B L1: 92.8% 7.2%
x264 [info]: kb/s:2520.59
encoded 129435 frames, 2.33 fps, 2520.59 kb/s
GeneralComplete name : ...\U_xolmov_est_glaza_2_2007_rasshirennaya_versiya_KinoGadget.mp4Format : MPEG-4Format profile : Base MediaCodec ID : isom (isom)File size : 1.75 GiBDuration : 1 h 29 minOverall bit rate mode : VariableOverall bit rate : 2 789 kb/sMovie name : У холмов есть глаза 2 | KinoGadgetPerformer : Мартин ВайзDirector : Мартин ВайзActor : Майкл МакМиллиан / Джессика Строуп / Джейкоб Варгас / Флекс Александр / Ли Томпсон Янг / Даниэлла Алонсо / Эрик Эдельштейн / Решад Стрик / Бен Краули / Майкл Бэйли СмитScreenplay by : Уэс Крэйвен / Джонатан КрэйвенProducer : Уэс Крэйвен / Питер Лок / Марианн МаддаленаGenre : Action, Horror, ThrillerContentType : Short FilmRecorded date : 2007Encoded date : UTC 2017-03-22 05:11:09Tagged date : UTC 2017-03-22 05:28:56Cover : YesContentRating : mpaa|R|400|LongDescription : Во время учений солдаты Национальной гвардии США делают привал на пограничной заставе в Нью-Мексико и, к своему удивлению, обнаруживают, что там никого нет. Получив сигнал тревоги, исходящий с отдаленной горной возвышенности, группа военных решает отправиться в этот район, чтобы помочь терпящим бедствие. Спасатели не знают, что это местечко когда-то посетила печально известная семья Картеров и что их поджидают кровожадные мутанты-каннибалы…HDVideo : Yes

VideoID : 1Format : AVCFormat/Info : Advanced Video CodecFormat profile : [email protected] settings, CABAC : YesFormat settings, ReFrames : 9 framesCodec ID : avc1Codec ID/Info : Advanced Video CodingDuration : 1 h 29 minBit rate : 2 521 kb/sMaximum bit rate : 13.4 Mb/sWidth : 1 280 pixelsHeight : 544 pixelsDisplay aspect ratio : 2.35:1Frame rate mode : ConstantFrame rate : 23.976 (24000/1001) FPSColor space : YUVChroma subsampling : 4:2:0Bit depth : 8 bitsScan type : ProgressiveBits/(Pixel*Frame) : 0.151Stream size : 1.58 GiB (90%)Writing library : x264 core 148 r2638 7599210Encoding settings : cabac=1 / ref=9 / deblock=1:-2:-1 / analyse=0x3:0x113 / me=umh / subme=7 / psy=1 / psy_rd=1.00:0.00 / mixed_ref=1 / me_range=32 / chroma_me=1 / trellis=2 / 8x8dct=1 / cqm=0 / deadzone=21,11 / fast_pskip=0 / chroma_qp_offset=-2 / threads=3 / lookahead_threads=1 / sliced_threads=0 / nr=0 / decimate=1 / interlaced=0 / bluray_compat=0 / constrained_intra=0 / bframes=6 / b_pyramid=2 / b_adapt=2 / b_bias=0 / direct=1 / weightb=1 / open_gop=0 / weightp=2 / keyint=250 / keyint_min=25 / scenecut=40 / intra_refresh=0 / rc_lookahead=60 / rc=crf / mbtree=1 / crf=18.0 / qcomp=0.60 / qpmin=0 / qpmax=69 / qpstep=4 / vbv_maxrate=62500 / vbv_bufsize=78125 / crf_max=0.0 / nal_hrd=none / filler=0 / ip_ratio=1.40 / aq=1:1.00Encoded date : UTC 2017-03-21 22:19:20Tagged date : UTC 2017-03-22 05:13:09

Audio #1ID : 2Format : AACFormat/Info : Advanced Audio CodecFormat profile : LCCodec ID : 40Duration : 1 h 29 minBit rate mode : VariableBit rate : 128 kb/sMaximum bit rate : 135 kb/sChannel(s) : 2 channelsChannel positions : Front: L RSampling rate : 48.0 kHzFrame rate : 46.875 FPS (1024 spf)Compression mode : LossyStream size : 82.4 MiB (5%)Title : Dub [Blu-ray CEE]Language : RussianEncoded date : UTC 2017-03-21 22:25:50Tagged date : UTC 2017-03-22 05:13:09

Audio #2ID : 3Format : AACFormat/Info : Advanced Audio CodecFormat profile : LCCodec ID : 40Duration : 1 h 29 minBit rate mode : VariableBit rate : 128 kb/sMaximum bit rate : 135 kb/sChannel(s) : 2 channelsChannel positions : Front: L RSampling rate : 48.0 kHzFrame rate : 46.875 FPS (1024 spf)Compression mode : LossyStream size : 82.4 MiB (5%)Title : OriginalLanguage : EnglishEncoded date : UTC 2017-03-21 22:36:57Tagged date : UTC 2017-03-22 05:13:09

Text #1ID : 4Format : Timed TextCodec ID : tx3gDuration : 1 h 25 minBit rate mode : VariableBit rate : 2 b/sStream size : 1.25 KiB (0%)Title : ForcedLanguage : RussianForced : NoEncoded date : UTC 2017-03-22 05:13:09Tagged date : UTC 2017-03-22 05:13:09

Text #2ID : 5Format : Timed TextCodec ID : tx3gDuration : 1 h 25 minBit rate mode : VariableBit rate : 69 b/sStream size : 43.3 KiB (0%)Title : FullLanguage : RussianForced : NoEncoded date : UTC 2017-03-22 05:13:09Tagged date : UTC 2017-03-22 05:13:09

Text #3ID : 6Format : Timed TextCodec ID : tx3gDuration : 1 h 24 minBit rate mode : VariableBit rate : 52 b/sStream size : 31.9 KiB (0%)Title : FullLanguage : EnglishForced : NoEncoded date : UTC 2017-03-22 05:13:09Tagged date : UTC 2017-03-22 05:13:09

Menu00:00:00.000 : 01. Main Titles/Run Away00:07:17.061 : 02. Trainees00:11:16.133 : 03. Sector 1600:17:22.583 : 04. Search and Rescue00:22:46.239 : 05. Message00:26:11.945 : 06. Mickey Dies00:32:23.691 : 07. Accident00:38:52.788 : 08. One by One00:46:19.443 : 09. Bait00:50:49.588 : 10. In the Mines00:56:52.867 : 11. In Trouble01:03:26.344 : 12. Temporary Safety01:08:08.292 : 13. Another Leader Dies01:15:44.414 : 14. By Themselves01:19:21.631 : 15. Rescuing Missy01:24:42.118 : 16. Escape/End Titles


Трекер:  [ 22-Мар-2017 08:00 ]

  

Скачать .torrent

Размер .torrent файла 18 KB


Размер: 1.75 GB
Хэш (hash) релиза: 7bb401f812f57b129292dd4c514a59339ac1bcb3

Еще никто не оставлял запись к записи скачать торрент [VIDEO] У холмов есть глаза 2 The Hills Have Eyes II . Будь первым!

!Обратная связь