Once Upon a Time | Eric Larsen | Young Dracula

Скачать через торрент [MULT] Волшебное кольцо бесплатно русская версия torrent активатор

Статистика раздачи
Размер:  162 MB   |    Зарегистрирован:  1 год 3 месяца   |    .torrent скачан:  28 раз   |   
Раздают:  1  
   
загрузка...
 
Автор Сообщение

Galfimbul

avatar Galfimbul


Волшебное кольцо

Год выпуска: 1979
Страна: СССР
Жанр: мультфильм, короткометражка, детский, семейный
Продолжительность: 00:18:34
Перевод: не требуется
Cубтитры: нет
Режиссер: Леонид Носырев
Роли озвучивали: Евгений Леонов, Юрий Волынцев, Анатолий Баранцев, Мария Виноградова, Кира Смирнова, Татьяна Васильева, Клара Румянова, Борис Новиков, Анна Каменкова
Описание: У Вани совсем нет денег, а свою последнюю одежду он отдал за спасение несчастных животных. Теперь у него дома живет кошка, собака и змея.

Но неожиданно оказалось, что эта змея — дочь короля, поэтому за свое спасение она подарила ему волшебное кольцо. И теперь Ваня может пожелать все, что угодно, и его желание исполнится!

Сначала Ваня загадал много еды, потом красивую одежду, и, наконец, решил жениться на принцессе. Но даже для волшебного кольца это непростая задача…
Релиз группы
Качество: DVDRip / рип с DVD5 Крупный план, без реставрации
Формат: MP4
Видео кодек: H.264
Аудио кодек: AAC
Видео: 468x360 AR:1.289 1080 kbps 25 fps
Аудио : 1ch 48 kHz 128 kbps
avs [info]: 468x360p 1:1 @ 25/1 fps (cfr)
x264 [info]: using SAR=1/1
x264 [info]: using cpu capabilities: MMX2 SSE2Fast SSSE3 SSE4.2 AVX FMA3 AVX2 LZCNT BMI2
x264 [info]: profile High, level 4.1

x264 [info]: frame I:182 Avg QP:22.42 size: 36557
x264 [info]: frame P:6484 Avg QP:25.55 size: 10263
x264 [info]: frame B:21195 Avg QP:27.84 size: 3642
x264 [info]: consecutive B-frames: 1.9% 2.3% 10.9% 34.4% 23.4% 14.1% 5.6% 4.0% 1.8% 0.9% 0.8%
x264 [info]: mb I I16..4: 1.1% 64.9% 34.1%
x264 [info]: mb P I16..4: 0.4% 3.0% 1.7% P16..4: 38.5% 32.6% 18.3% 4.3% 0.8% skip: 0.5%
x264 [info]: mb B I16..4: 0.1% 0.3% 0.4% B16..8: 31.9% 21.3% 5.1% direct:11.9% skip:29.0% L0:46.9% L1:29.5% BI:23.7%
x264 [info]: 8x8 transform intra:56.7% inter:59.0%
x264 [info]: direct mvs spatial:95.9% temporal:4.1%
x264 [info]: coded y,uvDC,uvAC intra: 83.9% 83.2% 48.5% inter: 41.7% 31.7% 4.2%
x264 [info]: i16 v,h,dc,p: 11% 41% 4% 44%
x264 [info]: i8 v,h,dc,ddl,ddr,vr,hd,vl,hu: 8% 15% 8% 9% 11% 8% 13% 10% 18%
x264 [info]: i4 v,h,dc,ddl,ddr,vr,hd,vl,hu: 11% 36% 5% 6% 9% 7% 9% 7% 11%
x264 [info]: i8c dc,h,v,p: 29% 36% 18% 17%
x264 [info]: Weighted P-Frames: Y:68.7% UV:55.6%
x264 [info]: ref P L0: 35.2% 13.4% 11.1% 9.0% 6.4% 6.0% 4.6% 3.5% 3.0% 3.0% 2.6% 2.1% 0.0%
x264 [info]: ref B L0: 60.6% 13.0% 7.3% 4.8% 3.8% 3.3% 2.8% 2.2% 1.5% 0.8%
x264 [info]: ref B L1: 93.8% 6.2%
x264 [info]: kb/s:1079.65

encoded 27861 frames, 23.60 fps, 1079.66 kb/s
GeneralComplete name : D:\Torrents\Волшебное кольцо.1979.DVDRip.x264.640x.rip by Frost O.S.mp4Format : MPEG-4Format profile : Base MediaCodec ID : isom (isom/avc1)File size : 162 MiBDuration : 18 min 34 sOverall bit rate mode : VariableOverall bit rate : 1 216 kb/sMovie name : Волшебное кольцо 1979 DVDRip x264 640x rip by Frost O SGenre : AnimationContentType : Short FilmEncoded date : UTC 2017-03-21 13:36:16Tagged date : UTC 2017-03-21 13:36:54Writing application : MkvToMp4 version: 0.224 (x64)Cover : YesComment : rip by Frost O.S

VideoID : 1Format : AVCFormat/Info : Advanced Video CodecFormat profile : [email protected] settings, CABAC : YesFormat settings, ReFrames : 11 framesCodec ID : avc1Codec ID/Info : Advanced Video CodingDuration : 18 min 34 sBit rate : 1 080 kb/sMaximum bit rate : 2 171 kb/sWidth : 468 pixelsHeight : 360 pixelsDisplay aspect ratio : 4:3Frame rate mode : ConstantFrame rate : 25.000 FPSColor space : YUVChroma subsampling : 4:2:0Bit depth : 8 bitsScan type : ProgressiveBits/(Pixel*Frame) : 0.256Stream size : 143 MiB (89%)Writing library : x264 core 148 r2744 b97ae06Encoding settings : cabac=1 / ref=11 / deblock=1:-1:-1 / analyse=0x3:0x133 / me=umh / subme=11 / psy=1 / psy_rd=0.70:0.00 / mixed_ref=1 / me_range=48 / chroma_me=1 / trellis=2 / 8x8dct=1 / cqm=0 / deadzone=21,11 / fast_pskip=0 / chroma_qp_offset=-2 / threads=6 / lookahead_threads=1 / sliced_threads=0 / nr=0 / decimate=0 / interlaced=0 / bluray_compat=0 / constrained_intra=0 / bframes=10 / b_pyramid=2 / b_adapt=2 / b_bias=0 / direct=3 / weightb=1 / open_gop=0 / weightp=2 / keyint=250 / keyint_min=25 / scenecut=40 / intra_refresh=0 / rc=2pass / mbtree=0 / bitrate=1080 / ratetol=1.0 / qcomp=0.60 / qpmin=0 / qpmax=69 / qpstep=4 / cplxblur=20.0 / qblur=0.5 / ip_ratio=1.40 / pb_ratio=1.30 / aq=1:1.00Language : EnglishEncoded date : UTC 2017-03-21 13:36:16Tagged date : UTC 2017-03-21 13:36:33Color range : LimitedColor primaries : BT.601 PALTransfer characteristics : BT.470 System B, BT.470 System GMatrix coefficients : BT.601

AudioID : 2Format : AACFormat/Info : Advanced Audio CodecFormat profile : LCCodec ID : 40Duration : 18 min 34 sBit rate mode : VariableBit rate : 128 kb/sMaximum bit rate : 131 kb/sChannel(s) : 2 channelsChannel positions : Front: L RSampling rate : 48.0 kHzFrame rate : 46.875 FPS (1024 spf)Compression mode : LossyStream size : 17.0 MiB (11%)Language : RussianDefault : YesAlternate group : 1Encoded date : UTC 2017-03-21 13:36:20Tagged date : UTC 2017-03-21 13:36:33


Трекер:  [ 21-Мар-2017 16:00 ]

  

Скачать .torrent

Размер .torrent файла 13 KB


Размер: 162 MB
Хэш (hash) релиза: 6973b57ab354105a2a41aa9812182595d1e8d881

Еще никто не оставлял запись к записи скачать торрент [MULT] Волшебное кольцо . Будь первым!

!Обратная связь