Karla Souza
SolveigMM Video Splitter 6 1 1803 30 Business Edition Beta + Serial [Don22]

Скачать через торрент [MULT] Рикки-Тикки-Тави бесплатно русская версия torrent активатор

Статистика раздачи
Размер:  170 MB   |    Зарегистрирован:  1 год   |    .torrent скачан:  33 раза   |   
Раздают:  1  
   
загрузка...
 
Автор Сообщение

Galfimbul

avatar Galfimbul


Рикки-Тикки-Тави

Год выпуска: 1965
Страна: СССР
Жанр: мультфильм, короткометражка
Продолжительность: 00:19:28
Перевод: не требуется
Cубтитры: нет
Режиссер: Александра Снежко-Блоцкая
Роли озвучивали: Клара Румянова, Георгий Вицин, Михаил Новохижин, Серафима Бирман, Анатолий Папанов, Тамара Дмитриева, Маргарита Суворова, Елена Понсова, Мария Виноградова, Капитолина Кузьмина
Описание: Рикки-Тикки-Тави — мангуст, главный герой рассказа из «Книги джунглей» Редьярда Киплинга. Рикки-Тикки-Тави защищает семью англичан, живущих в Индии, и борется с кобрами Нагом и Нагайной. Это рассказ о великой войне, которую вел в одиночку Рикки-Тикки-Тави в ванной большого дома в поселке Сигаули.

Дарзи, птица-портной, помогала ему, и Чучундра, мускусная крыса (ондатра, водится главным образом в Северной Америке) — та, что никогда не выбежит на середину комнаты, а все крадется у самой стены, — давала ему советы. Но по-настоящему воевал он один.
Релиз группы
Качество: DVDRip / рип с DVD5 "ТВИК"
Формат: MP4
Видео кодек: H.264
Аудио кодек: AAC
Видео: 464x360 AR:1.289 1080 kbps 25 fps
Аудио : 2ch 48 kHz 128 kbps
avs [info]: 464x360p 1:1 @ 25/1 fps (cfr)
x264 [info]: using SAR=1/1
x264 [info]: using cpu capabilities: MMX2 SSE2Fast SSSE3 SSE4.2 AVX FMA3 AVX2 LZCNT BMI2
x264 [info]: profile High, level 4.1

x264 [info]: frame I:196 Avg QP:19.84 size: 29954
x264 [info]: frame P:6820 Avg QP:22.34 size: 10780
x264 [info]: frame B:22207 Avg QP:24.72 size: 3530
x264 [info]: consecutive B-frames: 1.6% 2.5% 9.5% 38.4% 19.5% 21.5% 4.5% 1.9% 0.7%
x264 [info]: mb I I16..4: 1.3% 79.3% 19.4%
x264 [info]: mb P I16..4: 0.3% 9.7% 1.8% P16..4: 33.9% 36.9% 15.3% 1.7% 0.2% skip: 0.3%
x264 [info]: mb B I16..4: 0.0% 0.9% 0.3% B16..8: 31.3% 23.0% 4.9% direct: 8.4% skip:31.0% L0:43.6% L1:39.5% BI:16.9%
x264 [info]: 8x8 transform intra:79.9% inter:58.7%
x264 [info]: direct mvs spatial:95.7% temporal:4.3%
x264 [info]: coded y,uvDC,uvAC intra: 94.1% 89.1% 65.7% inter: 33.5% 37.0% 13.9%
x264 [info]: i16 v,h,dc,p: 19% 32% 11% 38%
x264 [info]: i8 v,h,dc,ddl,ddr,vr,hd,vl,hu: 11% 7% 9% 11% 14% 13% 11% 12% 13%
x264 [info]: i4 v,h,dc,ddl,ddr,vr,hd,vl,hu: 12% 8% 4% 10% 15% 14% 12% 12% 13%
x264 [info]: i8c dc,h,v,p: 39% 26% 16% 18%
x264 [info]: Weighted P-Frames: Y:48.5% UV:32.2%
x264 [info]: ref P L0: 37.4% 12.5% 15.5% 8.8% 6.0% 5.5% 4.5% 3.1% 2.7% 2.8% 1.1% 0.0%
x264 [info]: ref B L0: 72.4% 12.2% 5.1% 3.0% 2.1% 2.1% 1.6% 1.0% 0.4%
x264 [info]: ref B L1: 95.7% 4.3%
x264 [info]: kb/s:1079.81

encoded 29223 frames, 24.32 fps, 1079.81 kb/s
GeneralComplete name : D:\Torrents\Рикки-Тикки-Тави.1965.DVDRip.x264.640x.rip by Frost O.S.mp4Format : MPEG-4Format profile : Base MediaCodec ID : isom (isom/avc1)File size : 170 MiBDuration : 19 min 28 sOverall bit rate mode : VariableOverall bit rate : 1 217 kb/sMovie name : Рикки-Тикки-Тави 1965 DVDRip x264 640x rip by Frost O SGenre : AnimationContentType : Short FilmEncoded date : UTC 2017-03-21 12:36:55Tagged date : UTC 2017-03-21 12:37:18Writing application : MkvToMp4 version: 0.224 (x64)Cover : YesComment : rip by Frost O.S

VideoID : 1Format : AVCFormat/Info : Advanced Video CodecFormat profile : [email protected] settings, CABAC : YesFormat settings, ReFrames : 10 framesCodec ID : avc1Codec ID/Info : Advanced Video CodingDuration : 19 min 28 sBit rate : 1 080 kb/sMaximum bit rate : 3 438 kb/sWidth : 464 pixelsHeight : 360 pixelsDisplay aspect ratio : 1.289Frame rate mode : ConstantFrame rate : 25.000 FPSColor space : YUVChroma subsampling : 4:2:0Bit depth : 8 bitsScan type : ProgressiveBits/(Pixel*Frame) : 0.259Stream size : 150 MiB (89%)Writing library : x264 core 148 r2744 b97ae06Encoding settings : cabac=1 / ref=10 / deblock=1:-1:-1 / analyse=0x3:0x133 / me=umh / subme=11 / psy=1 / psy_rd=0.70:0.00 / mixed_ref=1 / me_range=48 / chroma_me=1 / trellis=2 / 8x8dct=1 / cqm=0 / deadzone=21,11 / fast_pskip=0 / chroma_qp_offset=-2 / threads=6 / lookahead_threads=1 / sliced_threads=0 / nr=0 / decimate=0 / interlaced=0 / bluray_compat=0 / constrained_intra=0 / bframes=8 / b_pyramid=2 / b_adapt=2 / b_bias=0 / direct=3 / weightb=1 / open_gop=0 / weightp=2 / keyint=250 / keyint_min=25 / scenecut=40 / intra_refresh=0 / rc=2pass / mbtree=0 / bitrate=1080 / ratetol=1.0 / qcomp=0.60 / qpmin=0 / qpmax=69 / qpstep=4 / cplxblur=20.0 / qblur=0.5 / ip_ratio=1.40 / pb_ratio=1.30 / aq=1:1.00Language : EnglishEncoded date : UTC 2017-03-21 12:36:55Tagged date : UTC 2017-03-21 12:37:11Color range : LimitedColor primaries : BT.601 PALTransfer characteristics : BT.470 System B, BT.470 System GMatrix coefficients : BT.601

AudioID : 2Format : AACFormat/Info : Advanced Audio CodecFormat profile : LCCodec ID : 40Duration : 19 min 28 sBit rate mode : VariableBit rate : 128 kb/sMaximum bit rate : 131 kb/sChannel(s) : 2 channelsChannel positions : Front: L RSampling rate : 48.0 kHzFrame rate : 46.875 FPS (1024 spf)Compression mode : LossyStream size : 17.8 MiB (11%)Language : RussianDefault : YesAlternate group : 1Encoded date : UTC 2017-03-21 12:36:56Tagged date : UTC 2017-03-21 12:37:11


Трекер:  [ 21-Мар-2017 15:30 ]

  

Скачать .torrent

Размер .torrent файла 13 KB


Размер: 170 MB
Хэш (hash) релиза: ca856628bfc8581f58c0f97c912d5082b502fe27

Еще никто не оставлял запись к записи скачать торрент [MULT] Рикки-Тикки-Тави . Будь первым!

!Обратная связь