Tamayura | Incredibles 2Duration: 118 min | Emily Of New Moon

Скачать через торрент [MULT] Летучий корабль бесплатно русская версия torrent активатор

Статистика раздачи
Размер:  155 MB   |    Зарегистрирован:  1 год 4 месяца   |    .torrent скачан:  43 раза   |   
Раздают:  1  
   
загрузка...
 
Автор Сообщение

Galfimbul

avatar Galfimbul


Летучий корабль

Год выпуска: 1979
Страна: СССР
Жанр: мультфильм, короткометражка, мюзикл, семейный
Продолжительность: 00:17:48
Перевод: не требуется
Cубтитры: нет
Режиссер: Гарри Бардин
Роли озвучивали: Гарри Бардин, Михаил Боярский, Анатолий Папанов, Рогволд Суховерко, Татьяна Шабельникова
Описание: Цветной рисованный фильм по мотивам русской сказки о том, что доброта, бескорыстная любовь и честность всегда побеждают коварство, злобу и чванство.
Релиз группы
Качество: DVDRip / рип с DVD5
Формат: MP4
Видео кодек: H.264
Аудио кодек: AAC
Видео: 468x360 AR:1.289 1080 kbps 25 fps
Аудио : 1ch 48 kHz 128 kbps
avs [info]: 468x360p 1:1 @ 25/1 fps (cfr)
x264 [info]: using SAR=1/1
x264 [info]: using cpu capabilities: MMX2 SSE2Fast SSSE3 SSE4.2 AVX FMA3 AVX2 LZCNT BMI2
x264 [info]: profile High, level 4.1

x264 [info]: frame I:184 Avg QP:18.11 size: 25141
x264 [info]: frame P:6643 Avg QP:21.47 size: 9970
x264 [info]: frame B:19873 Avg QP:24.29 size: 3690
x264 [info]: consecutive B-frames: 2.4% 3.0% 12.1% 41.6% 21.4% 12.0% 3.5% 1.8% 1.3% 0.8%
x264 [info]: mb I I16..4: 2.9% 53.7% 43.5%
x264 [info]: mb P I16..4: 0.8% 7.2% 3.7% P16..4: 35.4% 36.0% 13.3% 2.6% 0.4% skip: 0.7%
x264 [info]: mb B I16..4: 0.1% 0.6% 0.6% B16..8: 33.6% 22.1% 4.6% direct: 9.7% skip:28.9% L0:45.2% L1:38.7% BI:16.1%
x264 [info]: 8x8 transform intra:57.2% inter:49.5%
x264 [info]: direct mvs spatial:97.3% temporal:2.7%
x264 [info]: coded y,uvDC,uvAC intra: 82.6% 75.0% 47.8% inter: 33.7% 20.3% 5.2%
x264 [info]: i16 v,h,dc,p: 27% 24% 7% 41%
x264 [info]: i8 v,h,dc,ddl,ddr,vr,hd,vl,hu: 9% 11% 12% 9% 11% 8% 13% 9% 17%
x264 [info]: i4 v,h,dc,ddl,ddr,vr,hd,vl,hu: 15% 21% 7% 7% 10% 8% 10% 8% 13%
x264 [info]: i8c dc,h,v,p: 26% 40% 22% 12%
x264 [info]: Weighted P-Frames: Y:36.0% UV:13.1%
x264 [info]: ref P L0: 35.7% 10.3% 14.9% 8.3% 6.6% 5.6% 5.0% 3.3% 3.1% 2.9% 2.9% 1.2% 0.0%
x264 [info]: ref B L0: 71.0% 11.4% 5.3% 3.1% 2.4% 2.1% 1.8% 1.4% 1.0% 0.6%
x264 [info]: ref B L1: 95.9% 4.1%
x264 [info]: kb/s:1080.02

encoded 26700 frames, 22.29 fps, 1080.02 kb/s
GeneralComplete name : D:\Torrents\Летучий корабль.1979.DVDRip.x264.640x.rip by Frost O.S.mp4Format : MPEG-4Format profile : Base MediaCodec ID : isom (isom/avc1)File size : 155 MiBDuration : 17 min 48 sOverall bit rate : 1 217 kb/sMovie name : Летучий корабль 1979 DVDRip x264 640x rip by Frost O SGenre : AnimationContentType : Short FilmEncoded date : UTC 2017-03-21 12:57:07Tagged date : UTC 2017-03-21 12:57:42Writing application : MkvToMp4 version: 0.224 (x64)Cover : YesComment : rip by Frost O.S

VideoID : 1Format : AVCFormat/Info : Advanced Video CodecFormat profile : [email protected] settings, CABAC : YesFormat settings, ReFrames : 11 framesCodec ID : avc1Codec ID/Info : Advanced Video CodingDuration : 17 min 48 sBit rate : 1 080 kb/sMaximum bit rate : 1 985 kb/sWidth : 468 pixelsHeight : 360 pixelsDisplay aspect ratio : 4:3Frame rate mode : ConstantFrame rate : 25.000 FPSColor space : YUVChroma subsampling : 4:2:0Bit depth : 8 bitsScan type : ProgressiveBits/(Pixel*Frame) : 0.256Stream size : 138 MiB (89%)Writing library : x264 core 148 r2744 b97ae06Encoding settings : cabac=1 / ref=11 / deblock=1:-1:-1 / analyse=0x3:0x133 / me=umh / subme=11 / psy=1 / psy_rd=0.70:0.00 / mixed_ref=1 / me_range=48 / chroma_me=1 / trellis=2 / 8x8dct=1 / cqm=0 / deadzone=21,11 / fast_pskip=0 / chroma_qp_offset=-2 / threads=6 / lookahead_threads=1 / sliced_threads=0 / nr=0 / decimate=0 / interlaced=0 / bluray_compat=0 / constrained_intra=0 / bframes=9 / b_pyramid=2 / b_adapt=2 / b_bias=0 / direct=3 / weightb=1 / open_gop=0 / weightp=2 / keyint=250 / keyint_min=25 / scenecut=40 / intra_refresh=0 / rc=2pass / mbtree=0 / bitrate=1080 / ratetol=1.0 / qcomp=0.60 / qpmin=0 / qpmax=69 / qpstep=4 / cplxblur=20.0 / qblur=0.5 / ip_ratio=1.40 / pb_ratio=1.30 / aq=1:1.00Language : EnglishEncoded date : UTC 2017-03-21 12:57:07Tagged date : UTC 2017-03-21 12:57:18Color range : LimitedColor primaries : BT.601 PALTransfer characteristics : BT.470 System B, BT.470 System GMatrix coefficients : BT.601

AudioID : 2Format : AACFormat/Info : Advanced Audio CodecFormat profile : LCCodec ID : 40Duration : 17 min 47 sBit rate mode : ConstantBit rate : 128 kb/sChannel(s) : 1 channelChannel positions : Front: CSampling rate : 48.0 kHzFrame rate : 46.875 FPS (1024 spf)Compression mode : LossyStream size : 16.3 MiB (11%)Language : RussianDefault : YesAlternate group : 1Encoded date : UTC 2017-03-21 12:57:09Tagged date : UTC 2017-03-21 12:57:18


Трекер:  [ 21-Мар-2017 15:30 ]

  

Скачать .torrent

Размер .torrent файла 12 KB


Размер: 155 MB
Хэш (hash) релиза: a7ada2a06d26be653413c72154f59eedb045b9a7

Еще никто не оставлял запись к записи скачать торрент [MULT] Летучий корабль . Будь первым!

!Обратная связь