Injustice 2: Legendary Edition (2017) Update 11 DLCs [.. | Seks, kasa i kłopoty / Dirt... | Matt Houston

Скачать через торрент [VIDEO] Восставший Risen бесплатно русская версия torrent активатор

Статистика раздачи
Размер:  1.91 GB   |    Зарегистрирован:  1 год 3 месяца   |    .torrent скачан:  26 раз   |   
Раздают:  1  
   
загрузка...
 
Автор Сообщение

Galfimbul

avatar Galfimbul


Восставший / Risen
«Witness the manhunt that changed the course of human history»
Премьера: 19 февраля 2016
Оригинальное название: Risen
Страна: США
Жанр: боевик, драма, детектив, приключения
Возраст: 16+

Режиссер: Кевин Рейнольдс / Kevin Reynolds

В ролях: Джозеф Файнс, Том Фелтон, Питер Фёрт, Клифф Кёртис, Мария Ботто, Луис Кальехо, Антонио Хиль-Мартинес, Ричард Этуилл, Марк Киллин, Стюарт Скудамор

Описание: 33 год н. э. Римскому трибуну в Иудее дано задание найти пропавшее тело распятого накануне еврея, который, судя по слухам, воскрес.

Продолжительность: 01:47:38
Перевод: Профессиональный многоголосый [Лицензия]
Оригинальная дорожка: есть

Автор рипа:

Качество видео: BDRip Исходник: Blu-Ray Remux (1080p) Формат: mp4
Видео кодек: MPEG-4 AVC Аудио кодек: AAC
Видео: 1280x534 (2.40:1) at 23.976 fps, AVC at 2 276 kbps avg, 0.139 bit/pixel
Аудио №1 Rus: 48.0 KHz, AAC, 2 ch, 128.0 Kbps
Аудио №2 Eng: 48.0 KHz, AAC, 2 ch, 128.0 Kbps
Субтитры: русские (полные), английские (полные)
Навигация по главам: есть
Размер: 1.91 GiB
avs [info]: 1280x534p 1:1 @ 24000/1001 fps (cfr)
x264 [info]: using SAR=1/1
x264 [info]: using cpu capabilities: MMX2 SSE2Fast SSSE3 Cache64
x264 [info]: profile High, level 4.1
x264 [info]: frame I:1311 Avg QP:13.91 size:111261
x264 [info]: frame P:32127 Avg QP:17.52 size: 28024
x264 [info]: frame B:121406 Avg QP:20.04 size: 6519
x264 [info]: consecutive B-frames: 1.8% 2.2% 4.9% 24.3% 16.5% 29.9% 7.9% 10.7% 1.7%
x264 [info]: mb I I16..4: 6.3% 71.7% 22.0%
x264 [info]: mb P I16..4: 0.8% 7.8% 1.3% P16..4: 40.9% 24.0% 15.2% 0.0% 0.0% skip:10.0%
x264 [info]: mb B I16..4: 0.1% 0.6% 0.2% B16..8: 40.3% 6.9% 1.7% direct: 3.3% skip:47.0% L0:43.1% L1:48.4% BI: 8.5%
x264 [info]: 8x8 transform intra:76.4% inter:63.4%
x264 [info]: coded y,uvDC,uvAC intra: 81.4% 79.4% 49.9% inter: 18.0% 16.8% 1.6%
x264 [info]: i16 v,h,dc,p: 33% 14% 7% 46%
x264 [info]: i8 v,h,dc,ddl,ddr,vr,hd,vl,hu: 20% 14% 16% 6% 9% 9% 8% 9% 9%
x264 [info]: i4 v,h,dc,ddl,ddr,vr,hd,vl,hu: 24% 13% 13% 6% 10% 10% 9% 7% 7%
x264 [info]: i8c dc,h,v,p: 55% 18% 20% 7%
x264 [info]: Weighted P-Frames: Y:6.7% UV:2.4%
x264 [info]: ref P L0: 51.5% 11.9% 15.6% 6.2% 4.9% 3.9% 3.4% 2.3% 0.3% 0.0%
x264 [info]: ref B L0: 79.1% 9.9% 5.1% 2.5% 1.9% 1.1% 0.5%
x264 [info]: ref B L1: 93.2% 6.8%
x264 [info]: kb/s:2276.35
encoded 154844 frames, 2.74 fps, 2276.35 kb/s
GeneralComplete name : ...\Vosstavshij_2016_KinoGadget.mp4Format : MPEG-4Format profile : Base MediaCodec ID : isom (isom)File size : 1.91 GiBDuration : 1 h 47 minOverall bit rate mode : VariableOverall bit rate : 2 544 kb/sMovie name : Восставший | KinoGadgetPerformer : Кевин РейнольдсDirector : Кевин РейнольдсActor : Джозеф Файнс / Том Фелтон / Питер Фёрт / Клифф Кёртис / Мария Ботто / Луис Кальехо / Антонио Хиль-Мартинес / Ричард Этуилл / Марк Киллин / Стюарт СкудаморScreenplay by : Paul Aiello / Кевин РейнольдсProducer : Патрик Айелло / Мики Лиделл / Пит ШилеймонGenre : Action, Adventure, DramaContentType : Short FilmRecorded date : 2016Encoded date : UTC 2017-03-21 05:32:43Tagged date : UTC 2017-03-21 06:10:18Cover : YesContentRating : mpaa|PG-13|300|LongDescription : 33 год н. э. Римскому трибуну в Иудее дано задание найти пропавшее тело распятого накануне еврея, который, судя по слухам, воскрес.HDVideo : Yes

VideoID : 1Format : AVCFormat/Info : Advanced Video CodecFormat profile : [email protected] settings, CABAC : YesFormat settings, ReFrames : 8 framesCodec ID : avc1Codec ID/Info : Advanced Video CodingDuration : 1 h 47 minBit rate : 2 276 kb/sMaximum bit rate : 18.6 Mb/sWidth : 1 280 pixelsHeight : 534 pixelsDisplay aspect ratio : 2.40:1Frame rate mode : ConstantFrame rate : 23.976 (24000/1001) FPSColor space : YUVChroma subsampling : 4:2:0Bit depth : 8 bitsScan type : ProgressiveBits/(Pixel*Frame) : 0.139Stream size : 1.71 GiB (89%)Writing library : x264 core 148 r2638 7599210Encoding settings : cabac=1 / ref=8 / deblock=1:-2:-1 / analyse=0x3:0x113 / me=umh / subme=7 / psy=1 / psy_rd=1.00:0.00 / mixed_ref=1 / me_range=32 / chroma_me=1 / trellis=2 / 8x8dct=1 / cqm=0 / deadzone=21,11 / fast_pskip=0 / chroma_qp_offset=-2 / threads=3 / lookahead_threads=1 / sliced_threads=0 / nr=0 / decimate=1 / interlaced=0 / bluray_compat=0 / constrained_intra=0 / bframes=8 / b_pyramid=2 / b_adapt=2 / b_bias=0 / direct=1 / weightb=1 / open_gop=0 / weightp=2 / keyint=250 / keyint_min=25 / scenecut=40 / intra_refresh=0 / rc_lookahead=60 / rc=crf / mbtree=1 / crf=18.0 / qcomp=0.60 / qpmin=0 / qpmax=69 / qpstep=4 / vbv_maxrate=62500 / vbv_bufsize=78125 / crf_max=0.0 / nal_hrd=none / filler=0 / ip_ratio=1.40 / aq=1:1.00Encoded date : UTC 2017-03-21 00:49:12Tagged date : UTC 2017-03-21 05:33:23

Audio #1ID : 2Format : AACFormat/Info : Advanced Audio CodecFormat profile : LCCodec ID : 40Duration : 1 h 47 minBit rate mode : VariableBit rate : 128 kb/sMaximum bit rate : 135 kb/sChannel(s) : 2 channelsChannel positions : Front: L RSampling rate : 48.0 kHzFrame rate : 46.875 FPS (1024 spf)Compression mode : LossyStream size : 98.5 MiB (5%)Title : P [License]Language : RussianEncoded date : UTC 2017-03-21 00:54:00Tagged date : UTC 2017-03-21 05:33:23

Audio #2ID : 3Format : AACFormat/Info : Advanced Audio CodecFormat profile : LCCodec ID : 40Duration : 1 h 47 minBit rate mode : VariableBit rate : 128 kb/sMaximum bit rate : 135 kb/sChannel(s) : 2 channelsChannel positions : Front: L RSampling rate : 48.0 kHzFrame rate : 46.875 FPS (1024 spf)Compression mode : LossyStream size : 98.5 MiB (5%)Title : OriginalLanguage : EnglishEncoded date : UTC 2017-03-21 01:04:05Tagged date : UTC 2017-03-21 05:33:23

Text #1ID : 4Format : Timed TextCodec ID : tx3gDuration : 1 h 40 minBit rate mode : VariableBit rate : 65 b/sStream size : 47.8 KiB (0%)Title : FullLanguage : RussianForced : NoEncoded date : UTC 2017-03-21 05:33:23Tagged date : UTC 2017-03-21 05:33:23

Text #2ID : 5Format : Timed TextCodec ID : tx3gDuration : 1 h 39 minBit rate mode : VariableBit rate : 42 b/sStream size : 30.3 KiB (0%)Title : FullLanguage : EnglishForced : NoEncoded date : UTC 2017-03-21 05:33:23Tagged date : UTC 2017-03-21 05:33:23

Menu00:00:00.000 : Chapter 100:06:50.243 : Chapter 200:14:18.732 : Chapter 300:21:48.181 : Chapter 400:27:35.195 : Chapter 500:33:21.082 : Chapter 600:40:03.984 : Chapter 700:46:19.193 : Chapter 800:54:06.243 : Chapter 901:00:06.477 : Chapter 1001:07:53.027 : Chapter 1101:13:54.847 : Chapter 1201:19:46.656 : Chapter 1301:25:42.387 : Chapter 1401:33:16.132 : Chapter 1501:38:41.832 : Chapter 16


Трекер:  [ 21-Мар-2017 08:30 ]

  

Скачать .torrent

Размер .torrent файла 19 KB


Размер: 1.91 GB
Хэш (hash) релиза: 352902f1eea2a23412ddeff65d9206c8910ee3de

Еще никто не оставлял запись к записи скачать торрент [VIDEO] Восставший Risen . Будь первым!

!Обратная связь