Atlanta season 01 episode 03 | Preacher saison 3 episode 3 streaming | Running Man Episode 162

Скачать через торрент [MULT] Кот-рыболов бесплатно русская версия torrent активатор

Статистика раздачи
Размер:  62 MB   |    Зарегистрирован:  1 год 4 месяца   |    .torrent скачан:  21 раз   |   
Раздают:  1  
   
загрузка...
 
Автор Сообщение

Galfimbul

avatar Galfimbul


Кот-рыболов

Год выпуска: 1964
Страна: СССР
Жанр: мультфильм, короткометражка, семейный
Продолжительность: 00:09:42
Перевод: не требуется
Cубтитры: нет
Режиссер: Владимир Полковников
Роли озвучивали: Ольга Аросева, Эраст Гарин, Евгений Леонов, Анатолий Папанов
Описание: Добрый Кот пошел на рыбалку, а к нему в компанию напросились лесные звери, желающие полакомиться на дармовщину.
Релиз группы
Качество: DVDRip / рип с DVD5 Крупный план, без реставрации
Формат: MP4
Видео кодек: H.264
Аудио кодек: AAC
Видео: 482x360 AR:1.34 750 kbps 25 fps
Аудио : 1ch 48 kHz 128 kbps
avs [info]: 482x360p 1:1 @ 25/1 fps (cfr)
x264 [info]: using SAR=1/1
x264 [info]: using cpu capabilities: MMX2 SSE2Fast SSSE3 SSE4.2 AVX FMA3 AVX2 LZCNT BMI2
x264 [info]: profile High, level 4.1

x264 [info]: frame I:97 Avg QP:17.49 size: 30757
x264 [info]: frame P:3663 Avg QP:21.09 size: 8482
x264 [info]: frame B:10795 Avg QP:23.97 size: 1907
x264 [info]: consecutive B-frames: 2.2% 2.8% 10.6% 48.0% 23.0% 9.3% 2.3% 1.3% 0.5%
x264 [info]: mb I I16..4: 3.4% 71.9% 24.7%
x264 [info]: mb P I16..4: 1.0% 4.4% 1.6% P16..4: 40.5% 33.1% 14.6% 2.3% 0.4% skip: 2.1%
x264 [info]: mb B I16..4: 0.1% 0.5% 0.3% B16..8: 31.9% 15.1% 3.2% direct: 4.9% skip:44.0% L0:44.3% L1:41.3% BI:14.4%
x264 [info]: 8x8 transform intra:61.9% inter:57.6%
x264 [info]: direct mvs spatial:96.0% temporal:4.0%
x264 [info]: coded y,uvDC,uvAC intra: 66.4% 69.7% 40.9% inter: 22.2% 24.5% 4.6%
x264 [info]: i16 v,h,dc,p: 35% 24% 10% 31%
x264 [info]: i8 v,h,dc,ddl,ddr,vr,hd,vl,hu: 8% 11% 19% 9% 10% 9% 10% 10% 14%
x264 [info]: i4 v,h,dc,ddl,ddr,vr,hd,vl,hu: 10% 22% 13% 7% 10% 8% 10% 8% 13%
x264 [info]: i8c dc,h,v,p: 27% 43% 18% 11%
x264 [info]: Weighted P-Frames: Y:41.4% UV:22.1%
x264 [info]: ref P L0: 40.0% 14.0% 13.3% 6.9% 5.5% 4.6% 4.2% 2.6% 2.6% 2.4% 2.6% 1.2% 0.0%
x264 [info]: ref B L0: 72.4% 11.2% 5.0% 2.9% 2.2% 2.0% 1.6% 1.2% 0.9% 0.6%
x264 [info]: ref B L1: 95.9% 4.1%
x264 [info]: kb/s:750.76

encoded 14555 frames, 27.48 fps, 750.77 kb/s
GeneralComplete name : D:\Torrents\Кот рыболов.1964.DVDRip.x264.640x.rip by Frost O.S.mp4Format : MPEG-4Format profile : Base MediaCodec ID : isom (isom/avc1)File size : 61.7 MiBDuration : 9 min 42 sOverall bit rate : 889 kb/sMovie name : Кот рыболов 1964 DVDRip x264 640x rip by Frost O SDirector : Владимир ПолковниковActor : Ольга Аросева / Эраст Гарин / Евгений Леонов / Анатолий ПапановGenre : AnimationContentType : Short FilmEncoded date : UTC 2017-03-19 13:30:26Tagged date : UTC 2017-03-19 13:30:29Writing application : MkvToMp4 version: 0.224 (x64)Cover : YesComment : rip by Frost O.SLongDescription : Добрый Кот пошел на рыбалку, а к нему в компанию напросились лесные звери, желающие полакомиться на дармовщину.

VideoID : 1Format : AVCFormat/Info : Advanced Video CodecFormat profile : [email protected] settings, CABAC : YesFormat settings, ReFrames : 11 framesCodec ID : avc1Codec ID/Info : Advanced Video CodingDuration : 9 min 42 sBit rate : 750 kb/sMaximum bit rate : 2 245 kb/sWidth : 482 pixelsHeight : 360 pixelsDisplay aspect ratio : 4:3Frame rate mode : ConstantFrame rate : 25.000 FPSColor space : YUVChroma subsampling : 4:2:0Bit depth : 8 bitsScan type : ProgressiveBits/(Pixel*Frame) : 0.173Stream size : 52.1 MiB (84%)Writing library : x264 core 148 r2744 b97ae06Encoding settings : cabac=1 / ref=11 / deblock=1:-1:-1 / analyse=0x3:0x133 / me=umh / subme=11 / psy=1 / psy_rd=0.70:0.00 / mixed_ref=1 / me_range=48 / chroma_me=1 / trellis=2 / 8x8dct=1 / cqm=0 / deadzone=21,11 / fast_pskip=0 / chroma_qp_offset=-2 / threads=6 / lookahead_threads=1 / sliced_threads=0 / nr=0 / decimate=0 / interlaced=0 / bluray_compat=0 / constrained_intra=0 / bframes=8 / b_pyramid=2 / b_adapt=2 / b_bias=0 / direct=3 / weightb=1 / open_gop=0 / weightp=2 / keyint=250 / keyint_min=25 / scenecut=40 / intra_refresh=0 / rc_lookahead=80 / rc=2pass / mbtree=1 / bitrate=750 / ratetol=1.0 / qcomp=0.70 / qpmin=0 / qpmax=69 / qpstep=4 / cplxblur=20.0 / qblur=0.5 / ip_ratio=1.40 / aq=1:1.00Language : EnglishEncoded date : UTC 2017-03-19 13:30:26Tagged date : UTC 2017-03-19 13:30:28Color range : LimitedColor primaries : BT.601 PALTransfer characteristics : BT.470 System B, BT.470 System GMatrix coefficients : BT.601

AudioID : 2Format : AACFormat/Info : Advanced Audio CodecFormat profile : LCCodec ID : 40Duration : 9 min 42 sBit rate mode : ConstantBit rate : 128 kb/sChannel(s) : 1 channelChannel positions : Front: CSampling rate : 48.0 kHzFrame rate : 46.875 FPS (1024 spf)Compression mode : LossyStream size : 8.88 MiB (14%)Language : RussianDefault : YesAlternate group : 1Encoded date : UTC 2017-03-19 13:30:26Tagged date : UTC 2017-03-19 13:30:28


Трекер:  [ 19-Мар-2017 16:00 ]

  

Скачать .torrent

Размер .torrent файла 19 KB


Размер: 62 MB
Хэш (hash) релиза: 5d1ebc216c9969d33463fcad1f7f50ded3fa5dc5

Еще никто не оставлял запись к записи скачать торрент [MULT] Кот-рыболов . Будь первым!

!Обратная связь