Stepdaughter's Revenge | Perfume de Mulher Assistir Perfume de Mulher 720p Dublado/Legendado Online Frank Slade (Al Pacino), um tenente-coronel cego, viaja para Nova York com Charlie Simms (Chris O'Donnell), um jovem acompanhante, com quem resolve ter um final de semana inesquecível antes de morrer. Porém, na viagem ele começa a se interessar pelos problemas do jovem, esquecendo um pouco sua amarga infelicidade. Ver filme Perfume de Mulher Dublado/Legendado Ver ... | Jack Lambert

Скачать через торрент [MULT] Пес в сапогах бесплатно русская версия torrent активатор

Статистика раздачи
Размер:  172 MB   |    Зарегистрирован:  1 год 3 месяца   |    .torrent скачан:  23 раза   |   
Раздают:  1  
   
загрузка...
 
Автор Сообщение

Galfimbul

avatar Galfimbul


Пес в сапогах

Год выпуска: 1981
Страна: СССР
Жанр: мультфильм, короткометражка, мюзикл
Продолжительность: 00:19:46
Перевод: не требуется
Cубтитры: нет
Режиссер: Ефим Гамбург
Роли озвучивали: Николай Караченцов, Ирина Муравьёва, Валентин Гафт, Юрий Волынцев, Александр Ширвиндт, Евгений Весник, Лев Дуров, Василий Ливанов, Всеволод Ларионов, Григорий Шпигель
Описание: Молодой гасконский пес не успел приехать в Париж, как сразу подрался с кошками кардинала, подружился с лучшими собаками короля и влюбился в симпатичную болонку. Теперь его ждет такое количество проблем, что неизвестно, сможет ли он хотя бы остаться в живых…
Релиз группы
Качество: DVDRip / рип с DVD5 Крупный план, без реставрации
Формат: MP4
Видео кодек: H.264
Аудио кодек: AAC
Видео: 466x360 AR:1.294 1080 kbps 25 fps
Аудио : 1ch 48 kHz 128 kbps
avs [info]: 466x360p 1:1 @ 25/1 fps (cfr)
x264 [info]: using SAR=1/1
x264 [info]: using cpu capabilities: MMX2 SSE2Fast SSSE3 SSE4.2 AVX FMA3 AVX2 LZCNT BMI2
x264 [info]: profile High, level 4.1

x264 [info]: frame I:210 Avg QP:20.78 size: 29987
x264 [info]: frame P:7520 Avg QP:24.13 size: 10553
x264 [info]: frame B:21940 Avg QP:26.65 size: 3399
x264 [info]: consecutive B-frames: 2.3% 3.4% 11.4% 47.4% 20.3% 10.1% 3.3% 1.2% 0.6%
x264 [info]: mb I I16..4: 1.8% 66.1% 32.2%
x264 [info]: mb P I16..4: 0.7% 8.0% 2.8% P16..4: 35.5% 35.3% 14.6% 1.9% 0.2% skip: 1.0%
x264 [info]: mb B I16..4: 0.1% 0.8% 0.5% B16..8: 33.1% 20.4% 3.9% direct: 7.3% skip:33.9% L0:40.1% L1:38.5% BI:21.4%
x264 [info]: 8x8 transform intra:66.4% inter:57.6%
x264 [info]: direct mvs spatial:95.9% temporal:4.1%
x264 [info]: coded y,uvDC,uvAC intra: 84.6% 94.4% 70.6% inter: 31.8% 31.3% 11.0%
x264 [info]: i16 v,h,dc,p: 18% 38% 5% 38%
x264 [info]: i8 v,h,dc,ddl,ddr,vr,hd,vl,hu: 11% 16% 7% 8% 10% 9% 12% 10% 17%
x264 [info]: i4 v,h,dc,ddl,ddr,vr,hd,vl,hu: 12% 22% 5% 7% 11% 9% 11% 9% 14%
x264 [info]: i8c dc,h,v,p: 25% 39% 17% 19%
x264 [info]: Weighted P-Frames: Y:27.9% UV:14.3%
x264 [info]: ref P L0: 39.9% 15.8% 15.8% 6.1% 5.0% 3.8% 3.7% 2.2% 2.4% 2.1% 2.4% 0.8% 0.0%
x264 [info]: ref B L0: 81.8% 8.8% 2.9% 1.6% 1.1% 1.1% 0.8% 0.8% 0.6% 0.4%
x264 [info]: ref B L1: 96.7% 3.3%
x264 [info]: kb/s:1080.11

encoded 29670 frames, 23.91 fps, 1080.12 kb/s
GeneralComplete name : D:\Torrents\Пес в сапогах.1981.DVDRip.x264.640x.rip by Frost O.S.mp4Format : MPEG-4Format profile : Base MediaCodec ID : isom (isom/avc1)File size : 172 MiBDuration : 19 min 46 sOverall bit rate : 1 217 kb/sMovie name : Пес в сапогах 1981 DVDRip x264 640x rip by Frost O SDirector : Ефим ГамбургActor : Николай Караченцов / Ирина Муравьёва / Валентин Гафт / Юрий Волынцев / Александр Ширвиндт / Евгений Весник / Лев Дуров / Василий Ливанов / Всеволод Ларионов / Григорий ШпигельGenre : AnimationContentType : Short FilmEncoded date : UTC 2017-03-19 12:57:27Tagged date : UTC 2017-03-19 12:57:40Writing application : MkvToMp4 version: 0.224 (x64)Cover : YesComment : rip by Frost O.SLongDescription : Молодой гасконский пес не успел приехать в Париж, как сразу подрался с кошками кардинала, подружился с лучшими собаками короля и влюбился в симпатичную болонку. Теперь его ждет такое количество проблем, что неизвестно, сможет ли он хотя бы остаться в живых…

VideoID : 1Format : AVCFormat/Info : Advanced Video CodecFormat profile : [email protected] settings, CABAC : YesFormat settings, ReFrames : 11 framesCodec ID : avc1Codec ID/Info : Advanced Video CodingDuration : 19 min 46 sBit rate : 1 080 kb/sMaximum bit rate : 2 427 kb/sWidth : 466 pixelsHeight : 360 pixelsDisplay aspect ratio : 1.294Frame rate mode : ConstantFrame rate : 25.000 FPSColor space : YUVChroma subsampling : 4:2:0Bit depth : 8 bitsScan type : ProgressiveBits/(Pixel*Frame) : 0.258Stream size : 153 MiB (89%)Writing library : x264 core 148 r2744 b97ae06Encoding settings : cabac=1 / ref=11 / deblock=1:1:-1 / analyse=0x3:0x133 / me=umh / subme=11 / psy=1 / psy_rd=0.70:0.00 / mixed_ref=1 / me_range=48 / chroma_me=1 / trellis=2 / 8x8dct=1 / cqm=0 / deadzone=21,11 / fast_pskip=0 / chroma_qp_offset=-2 / threads=6 / lookahead_threads=1 / sliced_threads=0 / nr=0 / decimate=0 / interlaced=0 / bluray_compat=0 / constrained_intra=0 / bframes=8 / b_pyramid=2 / b_adapt=2 / b_bias=0 / direct=3 / weightb=1 / open_gop=0 / weightp=2 / keyint=250 / keyint_min=25 / scenecut=40 / intra_refresh=0 / rc=2pass / mbtree=0 / bitrate=1080 / ratetol=1.0 / qcomp=0.60 / qpmin=0 / qpmax=69 / qpstep=4 / cplxblur=20.0 / qblur=0.5 / ip_ratio=1.40 / pb_ratio=1.30 / aq=1:1.00Language : EnglishEncoded date : UTC 2017-03-19 12:57:27Tagged date : UTC 2017-03-19 12:57:35Color range : LimitedColor primaries : BT.601 PALTransfer characteristics : BT.470 System B, BT.470 System GMatrix coefficients : BT.601

AudioID : 2Format : AACFormat/Info : Advanced Audio CodecFormat profile : LCCodec ID : 40Duration : 19 min 46 sBit rate mode : ConstantBit rate : 128 kb/sChannel(s) : 1 channelChannel positions : Front: CSampling rate : 48.0 kHzFrame rate : 46.875 FPS (1024 spf)Compression mode : LossyStream size : 18.1 MiB (11%)Language : RussianDefault : YesAlternate group : 1Encoded date : UTC 2017-03-19 12:57:29Tagged date : UTC 2017-03-19 12:57:35


Трекер:  [ 19-Мар-2017 15:00 ]

  

Скачать .torrent

Размер .torrent файла 14 KB


Размер: 172 MB
Хэш (hash) релиза: 3490ac21db4e04f145e6bf0038983efc5bf2b9d1

Еще никто не оставлял запись к записи скачать торрент [MULT] Пес в сапогах . Будь первым!

!Обратная связь