Show Highlight Million Dollar Listing New York Ryan Serhant's Team Gives Him the Ultimate Surprise S7/Ep4: Ryan can't go to China, so his team brought China to him! Watch Video 2 weeks ago | Download APK | Bye Bye Jaqueline Comédia / Nacional / Romance Idioma: Português 2018 MKV Torrent DownloadVídeo 10 / Áudio 10Completo e grátisSinopse: Jaqueline (Poliana Oliveira), uma jovem humilde de 16 anos, é bolsista em um colégio particular e passa seus dias dividida entre os estudos e os...

Скачать через торрент [MULT] Вовка в Тридевятом царстве бесплатно русская версия torrent активатор

Статистика раздачи
Размер:  167 MB   |    Зарегистрирован:  1 год 4 месяца   |    .torrent скачан:  26 раз   |   
Раздают:  1  
   
загрузка...
 
Автор Сообщение

Galfimbul

avatar Galfimbul


Вовка в Тридевятом царстве

Год выпуска: 1965
Страна: СССР
Жанр: мультфильм, сказка
Продолжительность: 00:19:11
Перевод: не требуется
Cубтитры: нет
Режиссер: Борис Степанцев
Роли озвучивали: Рина Зеленая (Вовка) , Эмма Трэйвас, Михаил Яншин (Царь) , Клара Румянова (Василиса) , Елена Понсова (Старуха и Библиотекарша)
Описание: Путешествуя по русским сказкам, мальчик Вова встречается с трудолюбивым царём, Золотой рыбкой и Василисами Премудрыми.
Релиз группы
Качество: DVDRip / рип с DVD5 Крупный план, без реставрации
Формат: MP4
Видео кодек: H.264
Аудио кодек: AAC
Видео: 468x360 AR:1.33 1080 kbps 25 fps
Аудио : 2ch 48 kHz 128 kbps
avs [info]: 468x360p 1:1 @ 25/1 fps (cfr)
x264 [info]: using SAR=1/1
x264 [info]: using cpu capabilities: MMX2 SSE2Fast SSSE3 SSE4.2 AVX FMA3 AVX2 LZCNT BMI2
x264 [info]: profile High, level 4.1

x264 [info]: frame I:193 Avg QP:20.22 size: 31041
x264 [info]: frame P:6771 Avg QP:22.91 size: 10874
x264 [info]: frame B:21818 Avg QP:25.41 size: 3475
x264 [info]: consecutive B-frames: 1.5% 2.0% 8.9% 43.3% 20.7% 17.3% 3.5% 2.8%
x264 [info]: mb I I16..4: 3.4% 68.7% 28.0%
x264 [info]: mb P I16..4: 0.8% 7.7% 1.7% P16..4: 38.5% 35.4% 12.3% 1.8% 0.2% skip: 1.5%
x264 [info]: mb B I16..4: 0.1% 0.9% 0.2% B16..8: 29.8% 16.3% 3.1% direct:12.6% skip:37.0% L0:42.4% L1:36.8% BI:20.9%
x264 [info]: 8x8 transform intra:74.4% inter:61.5%
x264 [info]: direct mvs spatial:95.6% temporal:4.4%
x264 [info]: coded y,uvDC,uvAC intra: 90.4% 93.0% 68.5% inter: 35.6% 46.3% 11.5%
x264 [info]: i16 v,h,dc,p: 44% 34% 4% 18%
x264 [info]: i8 v,h,dc,ddl,ddr,vr,hd,vl,hu: 9% 7% 7% 11% 14% 13% 13% 12% 14%
x264 [info]: i4 v,h,dc,ddl,ddr,vr,hd,vl,hu: 14% 15% 3% 8% 13% 12% 12% 10% 13%
x264 [info]: i8c dc,h,v,p: 33% 26% 20% 21%
x264 [info]: Weighted P-Frames: Y:61.9% UV:58.3%
x264 [info]: ref P L0: 38.2% 12.8% 12.7% 7.6% 5.7% 5.9% 4.5% 3.2% 2.5% 2.5% 2.4% 2.0% 0.0%
x264 [info]: ref B L0: 79.7% 7.7% 3.3% 2.5% 1.8% 1.7% 1.2% 0.9% 0.7% 0.5%
x264 [info]: ref B L1: 97.6% 2.4%
x264 [info]: kb/s:1080.16

encoded 28782 frames, 22.90 fps, 1080.16 kb/s
GeneralComplete name : D:\Torrents\Вовка в Тридевятом царстве.1965.DVDRip.x264.640x.rip by Frost O.S.mp4Format : MPEG-4Format profile : Base MediaCodec ID : isom (isom/avc1)File size : 167 MiBDuration : 19 min 11 sOverall bit rate mode : VariableOverall bit rate : 1 217 kb/sMovie name : Вовка в Тридевятом царстве 1965 DVDRip x264 640x rip by Frost O SGenre : AnimationContentType : Short FilmEncoded date : UTC 2017-03-19 10:53:10Tagged date : UTC 2017-03-19 10:53:24Writing application : MkvToMp4 version: 0.224 (x64)Cover : YesComment : rip by Frost O.SLongDescription : Путешествуя по русским сказкам, мальчик Вова встречается с трудолюбивым царём, Золотой рыбкой и Василисами Премудрыми.

VideoID : 1Format : AVCFormat/Info : Advanced Video CodecFormat profile : [email protected] settings, CABAC : YesFormat settings, ReFrames : 11 framesCodec ID : avc1Codec ID/Info : Advanced Video CodingDuration : 19 min 11 sBit rate : 1 080 kb/sMaximum bit rate : 3 394 kb/sWidth : 468 pixelsHeight : 360 pixelsDisplay aspect ratio : 4:3Frame rate mode : ConstantFrame rate : 25.000 FPSColor space : YUVChroma subsampling : 4:2:0Bit depth : 8 bitsScan type : ProgressiveBits/(Pixel*Frame) : 0.256Stream size : 148 MiB (89%)Writing library : x264 core 148 r2744 b97ae06Encoding settings : cabac=1 / ref=11 / deblock=1:-1:-1 / analyse=0x3:0x133 / me=umh / subme=11 / psy=1 / psy_rd=0.70:0.00 / mixed_ref=1 / me_range=48 / chroma_me=1 / trellis=2 / 8x8dct=1 / cqm=0 / deadzone=21,11 / fast_pskip=0 / chroma_qp_offset=-2 / threads=6 / lookahead_threads=1 / sliced_threads=0 / nr=0 / decimate=0 / interlaced=0 / bluray_compat=0 / constrained_intra=0 / bframes=7 / b_pyramid=2 / b_adapt=2 / b_bias=0 / direct=3 / weightb=1 / open_gop=0 / weightp=2 / keyint=250 / keyint_min=25 / scenecut=40 / intra_refresh=0 / rc_lookahead=120 / rc=2pass / mbtree=1 / bitrate=1080 / ratetol=1.0 / qcomp=0.75 / qpmin=0 / qpmax=69 / qpstep=4 / cplxblur=20.0 / qblur=0.5 / ip_ratio=1.40 / aq=1:1.00Language : EnglishEncoded date : UTC 2017-03-19 10:53:10Tagged date : UTC 2017-03-19 10:53:18Color range : LimitedColor primaries : BT.601 PALTransfer characteristics : BT.470 System B, BT.470 System GMatrix coefficients : BT.601

AudioID : 2Format : AACFormat/Info : Advanced Audio CodecFormat profile : LCCodec ID : 40Duration : 19 min 11 sBit rate mode : VariableBit rate : 128 kb/sMaximum bit rate : 132 kb/sChannel(s) : 2 channelsChannel positions : Front: L RSampling rate : 48.0 kHzFrame rate : 46.875 FPS (1024 spf)Compression mode : LossyStream size : 17.6 MiB (11%)Language : RussianDefault : YesAlternate group : 1Encoded date : UTC 2017-03-19 10:53:14Tagged date : UTC 2017-03-19 10:53:18


Трекер:  [ 19-Мар-2017 13:30 ]

  

Скачать .torrent

Размер .torrent файла 13 KB


Размер: 167 MB
Хэш (hash) релиза: f72f176cedd68fecba498bd566d68406e8711930

Еще никто не оставлял запись к записи скачать торрент [MULT] Вовка в Тридевятом царстве . Будь первым!

!Обратная связь