Download | I Feel Pretty (2018) | Computers and Internet

Скачать через торрент [VIDEO] Кредо убийцы Assassins Creed бесплатно русская версия torrent активатор

Статистика раздачи
Размер:  413 MB   |    Зарегистрирован:  1 год 4 месяца   |    .torrent скачан:  29 раз   |   
Раздают:  1  
   
загрузка...
 
Автор Сообщение

Galfimbul

avatar Galfimbul


Кредо убийцы / Assassin's Creed
«Welcome to the Spanish Inquisition»

Год выпуска: 2016
Страна: Великобритания, Франция, Гонконг, США, Тайвань, Мальта, Канада
Жанр: фантастика, фэнтези, боевик, приключения
Продолжительность: 01:55:31
Перевод: Русский Профессиональный (полное дублирование) Blu-ray EUR
Cубтитры: русские (forced, на испанскую речь, отключаемые)
Режиссер: Джастин Курзель / Justin Kurzel
В ролях: Майкл Фассбендер, Марион Котийяр, Джереми Айронс, Брендан Глисон, Шарлотта Рэмплинг, Майкл Кеннет Уильямс, Дени Меноше, Ариана Лабед, Халид Абдалла, Эсси Дэвис и другие .
Описание: Вот уже много столетий Орден Рыцарей Тамплиеров сеет разумное, доброе, вечное, пытаясь насадить мир во всем мире. Чтобы искоренить любое проявление насилия, тамплиерам нужно найти Яблоко Эдема, способное подавлять свободу воли и все инстинкты к сопротивлению. Последнее препятствие на пути к всеобщему счастью и процветанию - Братство Ассасинов, сражающееся за свободу и почти уничтоженное своим идеологическим противником. Именно ассасины давным-давно спрятали яблоко в надежном месте и выбросили карту. Чтобы отыскать заветную реликвию, орден использует Анимус - машину для считывания генетической памяти, через которую по очереди пропускают отловленных в охапку потомков неуловимых мстителей. Погружаясь в воспоминания своих предков и переносясь в далекое прошлое с полным эффектом присутствия, они демонстрируют чудеса эквилибристики, акробатики и жонглирования, приближая светлое будущее.
Релиз группы
Качество: HDRip / рип с BDRip 720p
Формат: MP4
Видео кодек: XviD
Аудио кодек: AAC
Видео: 480х200 AR:2.40 365 kbps 23.976 fps
Аудио: [Russian] 2ch 48 kHz 128 kbps - Профессиональный (полное дублирование) Blu-ray EUR
GeneralComplete name : D:\Torrents\Assassin's Creed.2016.HDRip.XviD.480x.rip by Frost O.S.mp4Format : MPEG-4Format profile : Base MediaCodec ID : isom (isom/iso2)File size : 413 MiBDuration : 1 h 55 minOverall bit rate mode : VariableOverall bit rate : 500 kb/sMovie name : Assassin's Creed 2016 HDRip XviD 480x rip by Frost O SDirector : Джастин Курзель / Justin KurzelActor : Майкл Фассбендер / Марион Котийяр / Джереми Айронс / Брендан Глисон / Шарлотта Рэмплинг / Майкл Кеннет Уильямс / Дени Меноше / Ариана Лабед / Халид Абдалла / Эсси ДэвисGenre : ActionContentType : Short FilmEncoded date : UTC 2017-03-19 09:29:10Tagged date : UTC 2017-03-19 09:29:53Writing application : MkvToMp4 version: 0.224 (x64)Cover : YesComment : rip by Frost O.SLongDescription : Вот уже много столетий Орден Рыцарей Тамплиеров сеет разумное, доброе, вечное, пытаясь насадить мир во всем мире. Чтобы искоренить любое проявление насилия, тамплиерам нужно найти Яблоко Эдема, способное подавлять свободу воли и все инстинкты к сопротивлению. Последнее препятствие на пути к всеобщему счастью и процветанию - Братство Ассасинов, сражающееся за свободу и почти уничтоженное своим идеологическим противником. Именно ассасины давным-давно спрятали яблоко в надежном месте и выбросили карту. Чтобы отыскать заветную реликвию, орден использует Анимус - машину для считывания генетической памяти, через которую по очереди пропускают отловленных в охапку потомков неуловимых мстителей. Погружаясь в воспоминания своих предков и переносясь в далекое прошлое с полным эффектом присутствия, они демонстрируют чудеса эквилибристики, акробатики и жонглирования, приближая светлое будущее.

VideoID : 1Format : MPEG-4 VisualFormat profile : Advanced [email protected] settings, BVOP : YesFormat settings, QPel : NoFormat settings, GMC : No warppointsFormat settings, Matrix : CustomCodec ID : 20Duration : 1 h 55 minBit rate mode : VariableBit rate : 365 kb/sMaximum bit rate : 3 062 kb/sWidth : 480 pixelsHeight : 200 pixelsDisplay aspect ratio : 2.40:1Frame rate mode : ConstantFrame rate : 23.976 (24000/1001) FPSOriginal frame rate : 23.976 (23976/1000) FPSColor space : YUVChroma subsampling : 4:2:0Bit depth : 8 bitsScan type : ProgressiveCompression mode : LossyBits/(Pixel*Frame) : 0.158Stream size : 301 MiB (73%)Title : avi_GPAC0.5.2_DEV_rev248_g39d5978_masterWriting library : XviD 1.2.1 (UTC 2008-12-04)Language : EnglishTagged date : UTC 2017-03-19 09:29:24

AudioID : 2Format : AACFormat/Info : Advanced Audio CodecFormat profile : LCCodec ID : 40Duration : 1 h 55 minBit rate mode : VariableBit rate : 128 kb/sMaximum bit rate : 135 kb/sChannel(s) : 2 channelsChannel positions : Front: L RSampling rate : 48.0 kHzFrame rate : 46.875 FPS (1024 spf)Compression mode : LossyStream size : 106 MiB (26%)Title : Dub_ Blu_ray EUR / Dub_ Blu_ray EURLanguage : RussianDefault : YesAlternate group : 1Encoded date : UTC 2017-03-19 09:29:22Tagged date : UTC 2017-03-19 09:29:24

TextID : 3Format : Timed TextMuxing mode : sbtlCodec ID : tx3gDuration : 1 h 31 minBit rate mode : VariableBit rate : 9 b/sStream size : 6.34 KiB (0%)Title : Forced_ Blu_ray EUR / Forced_ Blu_ray EURLanguage : RussianDefault : YesForced : NoAlternate group : 2Encoded date : UTC 2017-03-19 09:29:24Tagged date : UTC 2017-03-19 09:29:24


Трекер:  [ 19-Мар-2017 11:30 ]

  

Скачать .torrent

Размер .torrent файла 16 KB


Размер: 413 MB
Хэш (hash) релиза: 05e7c6c8bd2e5ecca5b205e46bef1567e49585b3

Еще никто не оставлял запись к записи скачать торрент [VIDEO] Кредо убийцы Assassins Creed . Будь первым!

!Обратная связь