Hitorijime My Hero | 12 Monos | Mixology

Скачать через торрент [VIDEO] Кредо убийцы Assassins Creed бесплатно русская версия torrent активатор

Статистика раздачи
Размер:  1.94 GB   |    Зарегистрирован:  1 год 3 месяца   |    .torrent скачан:  58 раз   |   
Раздают:  1  
   
загрузка...
 
Автор Сообщение

Galfimbul

avatar Galfimbul


Кредо убийцы / Assassin's Creed
«Welcome to the Spanish Inquisition»
Премьера: 13 декабря 2016
Оригинальное название: Assassin's Creed
Страна: Великобритания, Франция, Гонконг, США, Тайвань, Мальта, Канада
Жанр: фантастика, фэнтези, боевик, приключения
Возраст: 16+

Режиссер: Джастин Курзель / Justin Kurzel

В ролях: Майкл Фассбендер, Марион Котийяр, Джереми Айронс, Брендан Глисон, Шарлотта Рэмплинг, Майкл Кеннет Уильямс, Дени Меноше, Ариана Лабед, Халид Абдалла, Эсси Дэвис

Описание: Благодаря революционным технологиям, позволяющим вызвать в памяти воспоминания прежних поколений, Каллум Линч проживает приключения своего предка Агилара в Испании 15-го века. Каллум узнает, что является потомком членов загадочного тайного общества ассасинов. Накопив невероятные знания и навыки, он вступает в противостояние с могущественной и жестокой организацией тамплиеров в наши дни.

Продолжительность: 01:55:31
Перевод: Дублированный [Лицензия]
Оригинальная дорожка: есть

Автор рипа:

Качество видео: BDRip Исходник: Blu-Ray Remux (1080p) Формат: mp4
Видео кодек: MPEG-4 AVC Аудио кодек: AAC
Видео: 1280x536 (2.40:1) at 23.976 fps, AVC at 2 008 kbps avg, 0.122 bit/pixel
Аудио №1 Rus: 48.0 KHz, AAC, 2 ch, 128.0 Kbps
Аудио №2 Ukr: 48.0 KHz, AAC, 2 ch, 128.0 Kbps
Аудио №3 Eng: 48.0 KHz, AAC, 2 ch, 128.0 Kbps
Субтитры: русские (форсированные, полные), украинские (форсированные, полные), английские (полные)
Навигация по главам: есть
Размер: 1.94 GiB
avs [info]: 1280x536p 1:1 @ 24000/1001 fps (cfr)
x264 [info]: using SAR=1/1
x264 [info]: using cpu capabilities: MMX2 SSE2Fast SSSE3 Cache64
x264 [info]: profile High, level 4.1
x264 [info]: frame I:1482 Avg QP:12.59 size: 80583
x264 [info]: frame P:32459 Avg QP:15.70 size: 22118
x264 [info]: frame B:132236 Avg QP:17.98 size: 6821
x264 [info]: consecutive B-frames: 2.2% 2.1% 6.1% 11.9% 12.6% 41.6% 6.7% 6.4% 1.7% 4.7% 4.2%
x264 [info]: mb I I16..4: 7.4% 70.2% 22.4%
x264 [info]: mb P I16..4: 2.5% 9.5% 1.9% P16..4: 44.2% 23.2% 12.1% 0.0% 0.0% skip: 6.5%
x264 [info]: mb B I16..4: 0.1% 0.6% 0.1% B16..8: 41.4% 7.5% 1.3% direct: 5.0% skip:43.9% L0:46.4% L1:47.9% BI: 5.7%
x264 [info]: 8x8 transform intra:69.6% inter:62.1%
x264 [info]: coded y,uvDC,uvAC intra: 68.9% 70.9% 44.8% inter: 16.3% 16.9% 1.2%
x264 [info]: i16 v,h,dc,p: 29% 15% 10% 45%
x264 [info]: i8 v,h,dc,ddl,ddr,vr,hd,vl,hu: 19% 14% 25% 5% 8% 7% 7% 7% 7%
x264 [info]: i4 v,h,dc,ddl,ddr,vr,hd,vl,hu: 30% 17% 20% 5% 7% 6% 6% 5% 4%
x264 [info]: i8c dc,h,v,p: 54% 20% 19% 7%
x264 [info]: Weighted P-Frames: Y:10.2% UV:5.3%
x264 [info]: ref P L0: 48.0% 7.5% 17.6% 8.2% 5.7% 4.6% 3.6% 2.3% 2.0% 0.4% 0.0%
x264 [info]: ref B L0: 69.0% 12.9% 7.7% 3.8% 2.6% 2.4% 1.3% 0.3%
x264 [info]: ref B L1: 90.7% 9.3%
x264 [info]: kb/s:2007.64
encoded 166177 frames, 2.61 fps, 2007.64 kb/s
GeneralComplete name : ...\Kredo_ubijcy_2016_KinoGadget.mp4Format : MPEG-4Format profile : Base MediaCodec ID : isom (isom)File size : 1.94 GiBDuration : 1 h 55 minOverall bit rate mode : VariableOverall bit rate : 2 407 kb/sMovie name : Кредо убийцы | KinoGadgetPerformer : Джастин КурзельDirector : Джастин КурзельActor : Майкл Фассбендер / Марион Котийяр / Джереми Айронс / Брендан Глисон / Шарлотта Рэмплинг / Майкл Кеннет Уильямс / Дени Меноше / Ариана Лабед / Халид Абдалла / Эсси ДэвисScreenplay by : Майкл Лессли / Адам Купер / Билл КолладжProducer : Маркус Барметтлер / Жан-Жюльен Баронне / Кристин Бёрджесс-КемарGenre : Action, Adventure, DramaContentType : Short FilmRecorded date : 2016Encoded date : UTC 2017-03-19 07:24:07Tagged date : UTC 2017-03-19 07:35:51Cover : YesContentRating : mpaa|PG-13|300|LongDescription : Благодаря революционным технологиям, позволяющим вызвать в памяти воспоминания прежних поколений, Каллум Линч проживает приключения своего предка Агилара в Испании 15-го века. Каллум узнает, что является потомком членов загадочного тайного общества ассасинов. Накопив невероятные знания и навыки, он вступает в противостояние с могущественной и жестокой организацией тамплиеров в наши дни.HDVideo : Yes

VideoID : 1Format : AVCFormat/Info : Advanced Video CodecFormat profile : [email protected] settings, CABAC : YesFormat settings, ReFrames : 9 framesCodec ID : avc1Codec ID/Info : Advanced Video CodingDuration : 1 h 55 minBit rate : 2 008 kb/sMaximum bit rate : 28.5 Mb/sWidth : 1 280 pixelsHeight : 536 pixelsDisplay aspect ratio : 2.40:1Frame rate mode : ConstantFrame rate : 23.976 (24000/1001) FPSColor space : YUVChroma subsampling : 4:2:0Bit depth : 8 bitsScan type : ProgressiveBits/(Pixel*Frame) : 0.122Stream size : 1.62 GiB (83%)Writing library : x264 core 148 r2638 7599210Encoding settings : cabac=1 / ref=9 / deblock=1:-2:-1 / analyse=0x3:0x113 / me=umh / subme=7 / psy=1 / psy_rd=1.00:0.00 / mixed_ref=1 / me_range=32 / chroma_me=1 / trellis=2 / 8x8dct=1 / cqm=0 / deadzone=21,11 / fast_pskip=0 / chroma_qp_offset=-2 / threads=3 / lookahead_threads=1 / sliced_threads=0 / nr=0 / decimate=1 / interlaced=0 / bluray_compat=0 / constrained_intra=0 / bframes=10 / b_pyramid=2 / b_adapt=2 / b_bias=0 / direct=1 / weightb=1 / open_gop=0 / weightp=2 / keyint=250 / keyint_min=25 / scenecut=40 / intra_refresh=0 / rc_lookahead=60 / rc=crf / mbtree=1 / crf=17.0 / qcomp=0.60 / qpmin=0 / qpmax=69 / qpstep=4 / vbv_maxrate=62500 / vbv_bufsize=78125 / crf_max=0.0 / nal_hrd=none / filler=0 / ip_ratio=1.40 / aq=1:1.00Encoded date : UTC 2017-03-19 06:39:22Tagged date : UTC 2017-03-19 07:24:42

Audio #1ID : 2Format : AACFormat/Info : Advanced Audio CodecFormat profile : LCCodec ID : 40Duration : 1 h 55 minBit rate mode : VariableBit rate : 128 kb/sMaximum bit rate : 135 kb/sChannel(s) : 2 channelsChannel positions : Front: L RSampling rate : 48.0 kHzFrame rate : 46.875 FPS (1024 spf)Compression mode : LossyStream size : 106 MiB (5%)Title : Dub [License]Language : RussianEncoded date : UTC 2017-03-19 06:47:04Tagged date : UTC 2017-03-19 07:24:42

Audio #2ID : 3Format : AACFormat/Info : Advanced Audio CodecFormat profile : LCCodec ID : 40Duration : 1 h 55 minBit rate mode : VariableBit rate : 128 kb/sMaximum bit rate : 135 kb/sChannel(s) : 2 channelsChannel positions : Front: L RSampling rate : 48.0 kHzFrame rate : 46.875 FPS (1024 spf)Compression mode : LossyStream size : 106 MiB (5%)Title : Dub [License]Language : UkrainianEncoded date : UTC 2017-03-19 06:56:55Tagged date : UTC 2017-03-19 07:24:42

Audio #3ID : 4Format : AACFormat/Info : Advanced Audio CodecFormat profile : LCCodec ID : 40Duration : 1 h 55 minBit rate mode : VariableBit rate : 128 kb/sMaximum bit rate : 135 kb/sChannel(s) : 2 channelsChannel positions : Front: L RSampling rate : 48.0 kHzFrame rate : 46.875 FPS (1024 spf)Compression mode : LossyStream size : 106 MiB (5%)Title : OriginalLanguage : EnglishEncoded date : UTC 2017-03-19 07:08:30Tagged date : UTC 2017-03-19 07:24:42

Text #1ID : 5Format : Timed TextCodec ID : tx3gDuration : 1 h 31 minBit rate mode : VariableBit rate : 9 b/sStream size : 6.37 KiB (0%)Title : ForcedLanguage : RussianForced : NoEncoded date : UTC 2017-03-19 07:24:42Tagged date : UTC 2017-03-19 07:24:42

Text #2ID : 6Format : Timed TextCodec ID : tx3gDuration : 1 h 39 minBit rate mode : VariableBit rate : 47 b/sStream size : 34.3 KiB (0%)Title : FullLanguage : RussianForced : NoEncoded date : UTC 2017-03-19 07:24:42Tagged date : UTC 2017-03-19 07:24:42

Text #3ID : 7Format : Timed TextCodec ID : tx3gDuration : 1 h 31 minBit rate mode : VariableBit rate : 9 b/sStream size : 5.88 KiB (0%)Title : ForcedLanguage : UkrainianForced : NoEncoded date : UTC 2017-03-19 07:24:42Tagged date : UTC 2017-03-19 07:24:42

Text #4ID : 8Format : Timed TextCodec ID : tx3gDuration : 1 h 54 minBit rate mode : VariableBit rate : 41 b/sStream size : 34.8 KiB (0%)Title : FullLanguage : UkrainianForced : NoEncoded date : UTC 2017-03-19 07:24:42Tagged date : UTC 2017-03-19 07:24:42

Text #5ID : 9Format : Timed TextCodec ID : tx3gDuration : 1 h 44 minBit rate mode : VariableBit rate : 31 b/sStream size : 23.5 KiB (0%)Title : FullLanguage : EnglishForced : NoEncoded date : UTC 2017-03-19 07:24:42Tagged date : UTC 2017-03-19 07:24:42

Menu


Трекер:  [ 19-Мар-2017 11:00 ]

  

Скачать .torrent

Размер .torrent файла 20 KB


Размер: 1.94 GB
Хэш (hash) релиза: 1ebb15dff3d0153a9818431110cf513247b7a170

Еще никто не оставлял запись к записи скачать торрент [VIDEO] Кредо убийцы Assassins Creed . Будь первым!

!Обратная связь