Rail Wars! | Karl Urban | Dietland HDTV

Скачать через торрент [VIDEO] Кредо убийцы Assassins Creed бесплатно русская версия torrent активатор

Статистика раздачи
Размер:  1.37 GB   |    Зарегистрирован:  1 год 3 месяца   |    .torrent скачан:  42 раза   |   
Раздают:  1  
   
загрузка...
 
Автор Сообщение

Galfimbul

avatar Galfimbul


Кредо убийцы / Assassin's Creed
«Welcome to the Spanish Inquisition»

Год выпуска: 2016
Страна: Великобритания, Франция, Гонконг, США, Тайвань, Мальта, Канада
Жанр: фантастика, фэнтези, боевик, приключения
Продолжительность: 01:55:31
Перевод №1: Русский Профессиональный (полное дублирование) Blu-ray EUR
Перевод №2: Украинский Профессиональный (полное дублирование) Blu-ray EUR
Оригинальная дорожка: Есть
Cубтитры: русские (forced, full), украинские (full), английские (forced, full, SDH, SDH-COLORED)
Режиссер: Джастин Курзель / Justin Kurzel
В ролях: Майкл Фассбендер, Марион Котийяр, Джереми Айронс, Брендан Глисон, Шарлотта Рэмплинг, Майкл Кеннет Уильямс, Дени Меноше, Ариана Лабед, Халид Абдалла, Эсси Дэвис и другие .
Описание: Вот уже много столетий Орден Рыцарей Тамплиеров сеет разумное, доброе, вечное, пытаясь насадить мир во всем мире. Чтобы искоренить любое проявление насилия, тамплиерам нужно найти Яблоко Эдема, способное подавлять свободу воли и все инстинкты к сопротивлению. Последнее препятствие на пути к всеобщему счастью и процветанию - Братство Ассасинов, сражающееся за свободу и почти уничтоженное своим идеологическим противником. Именно ассасины давным-давно спрятали яблоко в надежном месте и выбросили карту. Чтобы отыскать заветную реликвию, орден использует Анимус - машину для считывания генетической памяти, через которую по очереди пропускают отловленных в охапку потомков неуловимых мстителей. Погружаясь в воспоминания своих предков и переносясь в далекое прошлое с полным эффектом присутствия, они демонстрируют чудеса эквилибристики, акробатики и жонглирования, приближая светлое будущее.
Релиз группы
Качество: BDRip / рип с Blu-Ray EUR 1080p
Формат: MP4
Видео кодек: H.264
Аудио кодек: AAC
Видео: 960х402 AR:2.40 1300 kbps 23.976 fps
Аудио №1: [Russian] 2ch 48 kHz 128 kbps - Профессиональный (полное дублирование) Blu-ray EUR
Аудио №2: [Ukrainian] 2ch 48 kHz 128 kbps - Профессиональный (полное дублирование) Blu-ray EUR
Аудио №3: [English] 2ch 48 kHz 128 kbps - Оригинал
avs [info]: 960x402p 1:1 @ 2997/125 fps (cfr)
x264 [info]: using SAR=1/1
x264 [info]: using cpu capabilities: MMX2 SSE2Fast SSSE3 SSE4.2 AVX FMA3 AVX2 LZCNT BMI2
x264 [info]: profile High, level 4.1

x264 [info]: frame I:1531 Avg QP:13.11 size: 46529
x264 [info]: frame P:36666 Avg QP:17.21 size: 14062
x264 [info]: frame B:127980 Avg QP:18.97 size: 4216
x264 [info]: consecutive B-frames: 3.3% 3.2% 7.6% 22.8% 14.1% 25.9% 7.5% 4.2% 3.8% 2.9% 4.6%
x264 [info]: mb I I16..4: 7.3% 70.5% 22.3%
x264 [info]: mb P I16..4: 1.5% 8.6% 1.7% P16..4: 33.6% 39.0% 10.4% 0.0% 0.0% skip: 5.2%
x264 [info]: mb B I16..4: 0.2% 0.8% 0.2% B16..8: 36.1% 18.9% 2.2% direct: 3.7% skip:37.9% L0:46.8% L1:44.2% BI: 9.0%
x264 [info]: 8x8 transform intra:70.9% inter:57.5%
x264 [info]: direct mvs spatial:95.9% temporal:4.1%
x264 [info]: coded y,uvDC,uvAC intra: 75.8% 77.2% 53.7% inter: 15.5% 12.4% 5.5%
x264 [info]: i16 v,h,dc,p: 19% 13% 5% 63%
x264 [info]: i8 v,h,dc,ddl,ddr,vr,hd,vl,hu: 16% 8% 7% 9% 12% 12% 12% 11% 13%
x264 [info]: i4 v,h,dc,ddl,ddr,vr,hd,vl,hu: 32% 7% 7% 8% 10% 10% 9% 8% 10%
x264 [info]: i8c dc,h,v,p: 33% 31% 21% 15%
x264 [info]: Weighted P-Frames: Y:18.2% UV:10.8%
x264 [info]: ref P L0: 46.8% 7.4% 17.9% 7.5% 5.9% 5.2% 4.5% 2.1% 2.0% 0.4% 0.0%
x264 [info]: ref B L0: 67.0% 13.3% 7.2% 3.7% 3.7% 2.6% 2.1% 0.4%
x264 [info]: ref B L1: 93.0% 7.0%
x264 [info]: kb/s:1300.20

encoded 166177 frames, 15.60 fps, 1300.20 kb/s
GeneralComplete name : D:\Torrents\Assassin's Creed.2016.BDRip.x264.960x.rip by Frost O.S.mp4Format : MPEG-4Format profile : Base MediaCodec ID : isom (isom/avc1/iso2)File size : 1.37 GiBDuration : 1 h 55 minOverall bit rate mode : VariableOverall bit rate : 1 699 kb/sMovie name : Assassin's Creed 2016 BDRip x264 960x rip by Frost O SDirector : Джастин Курзель / Justin KurzelActor : Майкл Фассбендер / Марион Котийяр / Джереми Айронс / Брендан Глисон / Шарлотта Рэмплинг / Майкл Кеннет Уильямс / Дени Меноше / Ариана Лабед / Халид Абдалла / Эсси ДэвисGenre : ActionContentType : Short FilmEncoded date : UTC 2017-03-19 07:57:40Tagged date : UTC 2017-03-19 08:04:07Writing application : MkvToMp4 version: 0.224 (x64)Cover : YesComment : rip by Frost O.SLongDescription : Вот уже много столетий Орден Рыцарей Тамплиеров сеет разумное, доброе, вечное, пытаясь насадить мир во всем мире. Чтобы искоренить любое проявление насилия, тамплиерам нужно найти Яблоко Эдема, способное подавлять свободу воли и все инстинкты к сопротивлению. Последнее препятствие на пути к всеобщему счастью и процветанию - Братство Ассасинов, сражающееся за свободу и почти уничтоженное своим идеологическим противником. Именно ассасины давным-давно спрятали яблоко в надежном месте и выбросили карту. Чтобы отыскать заветную реликвию, орден использует Анимус - машину для считывания генетической памяти, через которую по очереди пропускают отловленных в охапку потомков неуловимых мстителей. Погружаясь в воспоминания своих предков и переносясь в далекое прошлое с полным эффектом присутствия, они демонстрируют чудеса эквилибристики, акробатики и жонглирования, приближая светлое будущее.

VideoID : 1Format : AVCFormat/Info : Advanced Video CodecFormat profile : [email protected] settings, CABAC : YesFormat settings, ReFrames : 9 framesCodec ID : avc1Codec ID/Info : Advanced Video CodingDuration : 1 h 55 minBit rate : 1 300 kb/sMaximum bit rate : 9 910 kb/sWidth : 960 pixelsHeight : 402 pixelsDisplay aspect ratio : 2.40:1Frame rate mode : ConstantFrame rate : 23.976 (24000/1001) FPSOriginal frame rate : 23.976 (23976/1000) FPSColor space : YUVChroma subsampling : 4:2:0Bit depth : 8 bitsScan type : ProgressiveBits/(Pixel*Frame) : 0.140Stream size : 1.05 GiB (77%)Writing library : x264 core 148 r2744 b97ae06Encoding settings : cabac=1 / ref=9 / deblock=1:-3:-3 / analyse=0x3:0x113 / me=umh / subme=11 / psy=1 / psy_rd=1.00:0.00 / mixed_ref=1 / me_range=32 / chroma_me=1 / trellis=2 / 8x8dct=1 / cqm=0 / deadzone=21,11 / fast_pskip=0 / chroma_qp_offset=-2 / threads=6 / lookahead_threads=1 / sliced_threads=0 / nr=0 / decimate=0 / interlaced=0 / bluray_compat=0 / constrained_intra=0 / bframes=10 / b_pyramid=2 / b_adapt=2 / b_bias=0 / direct=3 / weightb=1 / open_gop=0 / weightp=2 / keyint=250 / keyint_min=23 / scenecut=40 / intra_refresh=0 / rc=2pass / mbtree=0 / bitrate=1300 / ratetol=1.0 / qcomp=0.70 / qpmin=0 / qpmax=69 / qpstep=4 / cplxblur=20.0 / qblur=0.5 / ip_ratio=1.40 / pb_ratio=1.30 / aq=3:0.70Language : EnglishEncoded date : UTC 2017-03-19 07:57:40Tagged date : UTC 2017-03-19 08:00:45Color range : LimitedColor primaries : BT.709Transfer characteristics : BT.709Matrix coefficients : BT.709

Audio #1ID : 2Format : AACFormat/Info : Advanced Audio CodecFormat profile : LCCodec ID : 40Duration : 1 h 55 minBit rate mode : VariableBit rate : 128 kb/sMaximum bit rate : 135 kb/sChannel(s) : 2 channelsChannel positions : Front: L RSampling rate : 48.0 kHzFrame rate : 46.875 FPS (1024 spf)Compression mode : LossyStream size : 106 MiB (8%)Title : Dub_ Blu_ray EUR / Dub_ Blu_ray EURLanguage : RussianDefault : YesAlternate group : 1Encoded date : UTC 2017-03-19 07:58:59Tagged date : UTC 2017-03-19 08:00:45

Audio #2ID : 3Format : AACFormat/Info : Advanced Audio CodecFormat profile : LCCodec ID : 40Duration : 1 h 55 minBit rate mode : VariableBit rate : 128 kb/sMaximum bit rate : 135 kb/sChannel(s) : 2 channelsChannel positions : Front: L RSampling rate : 48.0 kHzFrame rate : 46.875 FPS (1024 spf)Compression mode : LossyStream size : 106 MiB (8%)Title : Dub_ Blu_ray EUR / Dub_ Blu_ray EURLanguage : UkrainianDefault : NoAlternate group : 1Encoded date : UTC 2017-03-19 07:59:44Tagged date : UTC 2017-03-19 08:00:45

Audio #3ID : 4Format : AACFormat/Info : Advanced Audio CodecFormat profile : LCCodec ID : 40Duration : 1 h 55 minBit rate mode : VariableBit rate : 128 kb/sMaximum bit rate : 135 kb/sChannel(s) : 2 channelsChannel positions : Front: L RSampling rate : 48.0 kHzFrame rate : 46.875 FPS (1024 spf)Compression mode : LossyStream size : 106 MiB (8%)Title : Original / OriginalLanguage : EnglishDefault : NoAlternate group : 1Encoded date : UTC 2017-03-19 08:00:23Tagged date : UTC 2017-03-19 08:00:45

Text #1ID : 5Format : Timed TextMuxing mode : sbtlCodec ID : tx3gDuration : 1 h 31 minBit rate mode : VariableBit rate : 9 b/sStream size : 6.34 KiB (0%)Title : Forced_ Blu_ray EUR / Forced_ Blu_ray EURLanguage : RussianDefault : YesForced : NoAlternate group : 2Encoded date : UTC 2017-03-19 08:00:45Tagged date : UTC 2017-03-19 08:00:45

Text #2ID : 6Format : Timed TextMuxing mode : sbtlCodec ID : tx3gDuration : 1 h 39 minBit rate mode : VariableBit rate : 47 b/sStream size : 34.2 KiB (0%)Title : Full_ Blu_ray EUR / Full_ Blu_ray EURLanguage : RussianDefault : NoForced : NoAlternate group : 2Encoded date : UTC 2017-03-19 08:00:45Tagged date : UTC 2017-03-19 08:00:45

Text #3ID : 7Format : Timed TextMuxing mode : sbtlCodec ID : tx3gDuration : 1 h 54 minBit rate mode : VariableBit rate : 41 b/sStream size : 34.8 KiB (0%)Title : Full_ Blu_ray EUR / Full_ Blu_ray EURLanguage : UkrainianDefault : NoForced : NoAlternate group : 2Encoded date : UTC 2017-03-19 08:00:45Tagged date : UTC 2017-03-19 08:00:45

Text #4ID : 8Format : Timed TextMuxing mode : sbtlCodec ID : tx3gDuration : 1 h 20 minBit rate mode : VariableBit rate : 5 b/sStream size : 3.14 KiB (0%)Title : Forced_ Blu_ray EUR / Forced_ Blu_ray EURLanguage : EnglishDefault : NoForced : NoAlternate group : 2Encoded date : UTC 2017-03-19 08:00:45Tagged date : UTC 2017-03-19 08:00:45

Text #5ID : 9Format : Timed TextMuxing mode : sbtlCodec ID : tx3gDuration : 1 h 44 minBit rate mode : VariableBit rate : 31 b/sStream size : 23.5 KiB (0%)Title : Full_ Blu_ray EUR / Full_ Blu_ray EURLanguage : EnglishDefault : NoForced : NoAlternate group : 2Encoded date : UTC 2017-03-19 08:00:45Tagged date : UTC 2017-03-19 08:00:45

Text #6ID : 10Format : Timed TextMuxing mode : sbtlCodec ID : tx3gDuration : 1 h 44 minBit rate mode : VariableBit rate : 35 b/sStream size : 26.9 KiB (0%)Title : SDH / SDHLanguage : EnglishDefault : NoForced : NoAlternate group : 2Encoded date : UTC 2017-03-19 08:00:45Tagged date : UTC 2017-03-19 08:00:45

Text #7ID : 11Format : Timed TextMuxing mode : sbtlCodec ID : tx3gDuration : 1 h 44 minBit rate mode : VariableBit rate : 42 b/sStream size : 31.8 KiB (0%)Title : SDH_COLORED / SDH_COLOREDLanguage : EnglishDefault : NoForced : NoAlternate group : 2Encoded date : UTC 2017-03-19 08:00:45Tagged date : UTC 2017-03-19 08:00:45


Трекер:  [ 19-Мар-2017 11:00 ]

  

Скачать .torrent

Размер .torrent файла 14 KB


Размер: 1.37 GB
Хэш (hash) релиза: 5f00d71dbf59dbcfae8ccf2f03ae64cad64c5cc3

Еще никто не оставлял запись к записи скачать торрент [VIDEO] Кредо убийцы Assassins Creed . Будь первым!

!Обратная связь