The Walking Dead | Janusz Chabior | Download

Скачать через торрент [VIDEO] Жандармы: Гексалогия Les gendarmes: Hexalogie бесплатно русская версия torrent активатор

Статистика раздачи
Размер:  12.81 GB   |    Зарегистрирован:  1 год 4 месяца   |    .torrent скачан:  25 раз   |   
Раздают:  1  
   
загрузка...
 
Автор Сообщение

Galfimbul

avatar Galfimbul


Жандармы: Гексалогия / Les gendarmes: Hexalogie

Жандарм из Сен-Тропе / Le gendarme de Saint-Tropez«Beguiling BATHING BEAUTIES will give you a load of laughs!»

Год выпуска: 1964
Страна: Италия, Франция
Жанр: комедия
Продолжительность: 01:39:13
Перевод №1: Русский Профессиональный (многоголосый, закадровый) НТВ+
Перевод №2: Русский Профессиональный (многоголосый, закадровый) РенТВ
Перевод №3: Русский Профессиональный (многоголосый, закадровый) Останкино
Перевод №4: Русский Профессиональный (многоголосый, закадровый) ОРТ
Перевод №5: Русский Профессиональный (многоголосый, закадровый) SomeWax
Перевод №6: Украинский Профессиональный (многоголосый, закадровый)
Перевод №7: Русский Авторский (одноголосый, закадровый) Дьяконов Константин|
Перевод №8: Русский Одноголосый (закадровый) Янкелевич Роман
Оригинальная дорожка: Есть
Cубтитры: русские (полные), английские (полные), французские (полные)
Режиссер: Жан Жиро / Jean Girault
В ролях: Луи де Фюнес (Maréchal des logis-chef Ludovic Cruchot), Женевьев Град (Nicole Cruchot), Мишель Галабрю (Adjudant Jérôme Gerber), Даниэль Коши (Richard), Мадлен Делавэвр (Une estivante / woman on holiday), Мария Паком (Mme Lareine Leroy), Клод Пьеплю (Boisselier), Габриэле Тинти (Gangster chauffeur), Мишель Варнье, Кристиан Марен (Maréchal des Logis Albert Merlot), Жан Лефевр (Maréchal des Logis Lucien Fougasse), Жан-Пьер Бертран (Eddie) и другие .
Описание: Получив повышение, в уютный курортный городок Сен-Тропе приезжает бравый жандарм Крюшо с красоткой-дочерью Николь. Добрые, но недотепистые местные жандармы с радостью принимают Крюшо в свой круг. Но их радость быстро проходит: не такой добряк, но еще более придурковатый Крюшо с рвением бросается на защиту закона даже тогда, когда закон в его защите не нуждается.
С приездом в Сен-Тропе жандарма Крюшо «мирная» жизнь городка заканчивается: охота на нудистов, поиски украденной из музея бесценной картины, поимка банды опасных преступников - бестолковому жандарму всегда найдется занятие. Да и за легкомысленной Николь нужен глаз да глаз...
Релиз группы
Качество: BDRip / рип Blu-ray 1080p Custom 3-Edition (HDClub)
Формат: MP4
Видео кодек: H.264
Аудио кодек: AAC
Видео: 960x408 AR:2.35 2104 kbps 24.000 fps
Аудио №1: [Russian] 2ch 48 kHz 128 kbps - [MVO] Профессиональный (многоголосый, закадровый) НТВ+
Аудио №2: [Russian] 2ch 48 kHz 128 kbps - [MVO] Профессиональный (многоголосый, закадровый) РенТВ
Аудио №3: [Russian] 2ch 48 kHz 128 kbps - [MVO] Профессиональный (многоголосый, закадровый) Останкино
Аудио №4: [Russian] 2ch 48 kHz 128 kbps - [MVO] Профессиональный (многоголосый, закадровый) ОРТ
Аудио №5: [Russian] 2ch 48 kHz 128 kbps - [MVO] Профессиональный (многоголосый, закадровый) SomeWax
Аудио №6: [Ukrainian] 2ch 48 kHz 128 kbps - [MVO] Профессиональный (многоголосый, закадровый)
Аудио №7: [Russian] 2ch 48 kHz 128 kbps - [VO] Авторский (одноголосый, закадровый) Дьяконов Константин
Аудио №8: [Russian] 2ch 48 kHz 128 kbps - [VO] Одноголосый (закадровый) Янкелевич Роман
Аудио №9: [French] 2ch 48 kHz 128 kbps - [Original]
<div class="sp-wrap">
<div class="sp-head folded">Logx264</div>
<div class="sp-body">avs [info]: 960x408p 1:1 @ 24/1 fps (cfr)
x264 [info]: using SAR=1/1
x264 [info]: using cpu capabilities: MMX2 SSE2Fast SSSE3 SSE4.2 AVX FMA3 AVX2 LZCNT BMI2
x264 [info]: profile High, level 4.1

x264 [info]: frame I:909 Avg QP:21.47 size: 59812
x264 [info]: frame P:29964 Avg QP:24.88 size: 22247
x264 [info]: frame B:112001 Avg QP:26.86 size: 7539
x264 [info]: consecutive B-frames: 1.0% 0.8% 4.8% 31.4% 21.3% 32.6% 4.5% 2.1% 1.0% 0.5%
x264 [info]: mb I I16..4: 2.5% 77.8% 19.7%
x264 [info]: mb P I16..4: 0.2% 10.8% 1.9% P16..4: 35.1% 37.0% 13.1% 0.0% 0.0% skip: 2.1%
x264 [info]: mb B I16..4: 0.0% 1.3% 0.2% B16..8: 37.5% 20.6% 3.8% direct: 6.9% skip:29.7% L0:41.8% L1:41.0% BI:17.2%
x264 [info]: 8x8 transform intra:83.8% inter:68.0%
x264 [info]: coded y,uvDC,uvAC intra: 96.4% 83.0% 51.4% inter: 32.2% 32.9% 1.7%
x264 [info]: i16 v,h,dc,p: 33% 20% 12% 35%
x264 [info]: i8 v,h,dc,ddl,ddr,vr,hd,vl,hu: 13% 10% 5% 9% 13% 12% 13% 11% 13%
x264 [info]: i4 v,h,dc,ddl,ddr,vr,hd,vl,hu: 13% 10% 2% 8% 14% 14% 15% 11% 13%
x264 [info]: i8c dc,h,v,p: 36% 26% 20% 18%
x264 [info]: Weighted P-Frames: Y:28.9% UV:19.8%
x264 [info]: ref P L0: 41.1% 16.0% 15.6% 7.0% 5.7% 4.4% 4.1% 2.5% 2.7% 0.8% 0.0%
x264 [info]: ref B L0: 76.5% 9.5% 5.4% 2.9% 2.2% 1.9% 1.2% 0.5%
x264 [info]: ref B L1: 95.4% 4.6%
x264 [info]: kb/s:2103.57

encoded 142874 frames, 11.49 fps, 2103.57 kb/s
GeneralComplete name : D:\Torrents\Жандармы Гексалогия.1964-1982.BDRip.x264.960x\Жандарм из Сен-Тропе.1964.BDRip.x264.960x.rip by Frost O.S.mp4Format : MPEG-4Format profile : Base MediaCodec ID : isom (isom/avc1/iso2)File size : 2.28 GiBDuration : 1 h 39 minOverall bit rate mode : VariableOverall bit rate : 3 289 kb/sMovie name : Жандарм из Сен-Тропе 1964 BDRip x264 960x rip by Frost O SDirector : Жан Жиро / Jean GiraultActor : Луи де Фюнес (Maréchal des logis-chef Ludovic Cruchot) / Женевьев Град (Nicole Cruchot) / Мишель Галабрю (Adjudant Jérôme Gerber) / Даниэль Коши (Richard) / Мадлен Делавэвр (Une estivante / woman on holiday) / Мария Паком (Mme Lareine Leroy) / Клод Пьеплю (Boisselier) / Габриэле Тинти (Gangster chauffeur) / Мишель Варнье / Кристиан Марен (Maréchal des Logis Albert Merlot) / Жан Лефевр (Maréchal des Logis Lucien Fougasse) / Жан-Пьер Бертран (Eddie)Genre : ComedyContentType : Short FilmEncoded date : UTC 2017-03-18 11:12:13Tagged date : UTC 2017-03-18 11:25:40Writing application : MkvToMp4 version: 0.224 (x64)Cover : YesComment : rip by Frost O.SLongDescription : Получив повышение, в уютный курортный городок Сен-Тропе приезжает бравый жандарм Крюшо с красоткой-дочерью Николь. Добрые, но недотепистые местные жандармы с радостью принимают Крюшо в свой круг. Но их радость быстро проходит: не такой добряк, но еще более придурковатый Крюшо с рвением бросается на защиту закона даже тогда, когда закон в его защите не нуждается. С приездом в Сен-Тропе жандарма Крюшо «мирная» жизнь городка заканчивается: охота на нудистов, поиски украденной из музея бесценной картины, поимка банды опасных преступников - бестолковому жандарму всегда найдется занятие. Да и за легкомысленной Николь нужен глаз да глаз...

VideoID : 1Format : AVCFormat/Info : Advanced Video CodecFormat profile : [email protected] settings, CABAC : YesFormat settings, ReFrames : 9 framesCodec ID : avc1Codec ID/Info : Advanced Video CodingDuration : 1 h 39 minBit rate : 2 104 kb/sMaximum bit rate : 7 090 kb/sWidth : 960 pixelsHeight : 408 pixelsDisplay aspect ratio : 2.35:1Frame rate mode : ConstantFrame rate : 24.000 FPSColor space : YUVChroma subsampling : 4:2:0Bit depth : 8 bitsScan type : ProgressiveBits/(Pixel*Frame) : 0.224Stream size : 1.46 GiB (64%)Writing library : x264 core 148 r2744 b97ae06Encoding settings : cabac=1 / ref=9 / deblock=1:-1:1 / analyse=0x3:0x113 / me=umh / subme=11 / psy=1 / psy_rd=1.00:0.15 / mixed_ref=1 / me_range=32 / chroma_me=1 / trellis=2 / 8x8dct=1 / cqm=0 / deadzone=21,11 / fast_pskip=1 / chroma_qp_offset=-3 / threads=6 / lookahead_threads=1 / sliced_threads=0 / nr=0 / decimate=1 / interlaced=0 / bluray_compat=0 / constrained_intra=0 / bframes=9 / b_pyramid=2 / b_adapt=2 / b_bias=0 / direct=1 / weightb=1 / open_gop=0 / weightp=2 / keyint=250 / keyint_min=24 / scenecut=40 / intra_refresh=0 / rc=crf / mbtree=0 / crf=19.0 / qcomp=0.60 / qpmin=0 / qpmax=69 / qpstep=4 / ip_ratio=1.40 / pb_ratio=1.30 / aq=1:0.70Language : EnglishEncoded date : UTC 2017-03-18 11:12:13Tagged date : UTC 2017-03-18 11:14:56Color range : LimitedColor primaries : BT.709Transfer characteristics : BT.709Matrix coefficients : BT.709

Audio #1ID : 2Format : AACFormat/Info : Advanced Audio CodecFormat profile : LCCodec ID : 40Duration : 1 h 39 minBit rate mode : VariableBit rate : 128 kb/sMaximum bit rate : 131 kb/sChannel(s) : 2 channelsChannel positions : Front: L RSampling rate : 48.0 kHzFrame rate : 46.875 FPS (1024 spf)Compression mode : LossyStream size : 90.8 MiB (4%)Title : MVO_ HTB_ / MVO_ HTB_Language : RussianDefault : YesAlternate group : 1Encoded date : UTC 2017-03-18 11:13:30Tagged date : UTC 2017-03-18 11:14:56

Audio #2ID : 3Format : AACFormat/Info : Advanced Audio CodecFormat profile : LCCodec ID : 40Duration : 1 h 39 minBit rate mode : VariableBit rate : 128 kb/sMaximum bit rate : 134 kb/sChannel(s) : 2 channelsChannel positions : Front: L RSampling rate : 48.0 kHzFrame rate : 46.875 FPS (1024 spf)Compression mode : LossyStream size : 90.8 MiB (4%)Title : MVO_ RenTV / MVO_ RenTVLanguage : RussianDefault : NoAlternate group : 1Encoded date : UTC 2017-03-18 11:13:39Tagged date : UTC 2017-03-18 11:14:56

Audio #3ID : 4Format : AACFormat/Info : Advanced Audio CodecFormat profile : LCCodec ID : 40Duration : 1 h 39 minBit rate mode : VariableBit rate : 128 kb/sMaximum bit rate : 135 kb/sChannel(s) : 2 channelsChannel positions : Front: L RSampling rate : 48.0 kHzFrame rate : 46.875 FPS (1024 spf)Compression mode : LossyStream size : 90.8 MiB (4%)Title : MVO_ Ostankino / MVO_ OstankinoLanguage : RussianDefault : NoAlternate group : 1Encoded date : UTC 2017-03-18 11:13:48Tagged date : UTC 2017-03-18 11:14:56

Audio #4ID : 5Format : AACFormat/Info : Advanced Audio CodecFormat profile : LCCodec ID : 40Duration : 1 h 39 minBit rate mode : VariableBit rate : 128 kb/sMaximum bit rate : 135 kb/sChannel(s) : 2 channelsChannel positions : Front: L RSampling rate : 48.0 kHzFrame rate : 46.875 FPS (1024 spf)Compression mode : LossyStream size : 90.8 MiB (4%)Title : MVO_ OPT / MVO_ OPTLanguage : RussianDefault : NoAlternate group : 1Encoded date : UTC 2017-03-18 11:13:56Tagged date : UTC 2017-03-18 11:14:56

Audio #5ID : 6Format : AACFormat/Info : Advanced Audio CodecFormat profile : LCCodec ID : 40Duration : 1 h 39 minBit rate mode : VariableBit rate : 128 kb/sMaximum bit rate : 135 kb/sChannel(s) : 2 channelsChannel positions : Front: L RSampling rate : 48.0 kHzFrame rate : 46.875 FPS (1024 spf)Compression mode : LossyStream size : 90.8 MiB (4%)Title : MVO_ SomeWax / MVO_ SomeWaxLanguage : RussianDefault : NoAlternate group : 1Encoded date : UTC 2017-03-18 11:14:03Tagged date : UTC 2017-03-18 11:14:56

Audio #6ID : 7Format : AACFormat/Info : Advanced Audio CodecFormat profile : LCCodec ID : 40Duration : 1 h 39 minBit rate mode : VariableBit rate : 128 kb/sMaximum bit rate : 133 kb/sChannel(s) : 2 channelsChannel positions : Front: L RSampling rate : 48.0 kHzFrame rate : 46.875 FPS (1024 spf)Compression mode : LossyStream size : 90.8 MiB (4%)Title : MVO / MVOLanguage : UkrainianDefault : NoAlternate group : 1Encoded date : UTC 2017-03-18 11:14:13Tagged date : UTC 2017-03-18 11:14:56

Audio #7ID : 8Format : AACFormat/Info : Advanced Audio CodecFormat profile : LCCodec ID : 40Duration : 1 h 39 minBit rate mode : VariableBit rate : 128 kb/sMaximum bit rate : 135 kb/sChannel(s) : 2 channelsChannel positions : Front: L RSampling rate : 48.0 kHzFrame rate : 46.875 FPS (1024 spf)Compression mode : LossyStream size : 90.8 MiB (4%)Title : VO_ Dyakonov / VO_ DyakonovLanguage : RussianDefault : NoAlternate group : 1Encoded date : UTC 2017-03-18 11:14:26Tagged date : UTC 2017-03-18 11:14:56

Audio #8ID : 9Format : AACFormat/Info : Advanced Audio CodecFormat profile : LCCodec ID : 40Duration : 1 h 39 minBit rate mode : VariableBit rate : 128 kb/sMaximum bit rate : 135 kb/sChannel(s) : 2 channelsChannel positions : Front: L RSampling rate : 48.0 kHzFrame rate : 46.875 FPS (1024 spf)Compression mode : LossyStream size : 90.8 MiB (4%)Title : VO_ Yankelevich / VO_ YankelevichLanguage : RussianDefault : NoAlternate group : 1Encoded date : UTC 2017-03-18 11:14:34Tagged date : UTC 2017-03-18 11:14:56

Audio #9ID : 10Format : AACFormat/Info : Advanced Audio CodecFormat profile : LCCodec ID : 40Duration : 1 h 39 minBit rate mode : VariableBit rate : 128 kb/sMaximum bit rate : 135 kb/sChannel(s) : 2 channelsChannel positions : Front: L RSampling rate : 48.0 kHzFrame rate : 46.875 FPS (1024 spf)Compression mode : LossyStream size : 90.8 MiB (4%)Title : Original / OriginalLanguage : FrenchDefault : NoAlternate group : 1Encoded date : UTC 2017-03-18 11:14:45Tagged date : UTC 2017-03-18 11:14:56

Text #1ID : 11Format : Timed TextMuxing mode : sbtlCodec ID : tx3gDuration : 1 h 37 minBit rate mode : VariableBit rate : 93 b/sStream size : 66.9 KiB (0%)Title : Full / FullLanguage : RussianDefault : YesForced : NoAlternate group : 2Encoded date : UTC 2017-03-18 11:14:55Tagged date : UTC 2017-03-18 11:14:56

Text #2ID : 12Format : Timed TextMuxing mode : sbtlCodec ID : tx3gDuration : 1 h 37 minBit rate mode : VariableBit rate : 44 b/sStream size : 31.4 KiB (0%)Title : Full / FullLanguage : EnglishDefault : NoForced : NoAlternate group : 2Encoded date : UTC 2017-03-18 11:14:55Tagged date : UTC 2017-03-18 11:14:56

Text #3ID : 13Format : Timed TextMuxing mode : sbtlCodec ID : tx3gDuration : 1 h 37 minBit rate mode : VariableBit rate : 56 b/sStream size : 40.5 KiB (0%)Title : Full / FullLanguage : FrenchDefault : NoForced : NoAlternate group : 2Encoded date : UTC 2017-03-18 11:14:55Tagged date : UTC 2017-03-18 11:14:56
</div>
</div>
Жандарм в Нью-Йорке / Le gendarme à New York

Год выпуска: 1965
Страна: Франция, Италия
Жанр: комедия
Продолжительность: 01:41:48
Перевод №1: Русский Профессиональный (полное дублирование)
Перевод №2: Русский Профессиональный (многоголосый, закадровый) НТВ+
Перевод №3: Русский Профессиональный (многоголосый, закадровый) РенТВ
Перевод №4: Русский Профессиональный (многоголосый, закадровый) Останкино
Перевод №5: Русский Профессиональный (многоголосый, закадровый) ТНТ
Перевод №6: Русский Профессиональный (многоголосый, закадровый) SomeWax
Перевод №7: Украинский Профессиональный (многоголосый, закадровый)
Перевод №8: Русский Авторский (одноголосый, закадровый) Дьяконов Константин|
Перевод №9: Русский Авторский (одноголосый, закадровый) Козлов Сергей|
Перевод №10: Русский Одноголосый (закадровый) Янкелевич Роман
Оригинальная дорожка: Есть
Cубтитры: русские (полные), английские (полные), французские (полные)
Режиссер: Жан Жиро / Jean Girault
В ролях: Луи де Фюнес (Maréchal des logis-chef Ludovic Cruchot), Мишель Галабрю (Adjudant Jérôme Gerber), Кристиан Марен (Maréchal des Logis Albert Merlot), Ги Гроссо (Maréchal des Logis Tricard), Мишель Модо (Maréchal des Logis Berlicot), Алан Скотт (Franck), Жан Лефевр (Maréchal des Logis Lucien Fougasse), Женевьев Град (Nicole Cruchot), Марино Мазе (Aldo), Марио Пизу (L'adjudant Renzo), Альбер Ожье (Le présentateur de la publicité), Жан-Пьер Бертран (Le copain de Nicole) и другие .
Описание: Дружная бригада французских полицейских отправляется в Нью - Йорк, где им поручено представлять Францию на международном конгрессе полицейских. Крюшо, Мерло, Фугас, Трикар и Берлико во главе с сержантом Жербером пускаются в дальний путь.
Как не уронить чести мундира, если вас ждет страна соблазнов, да и по - английски вы не знаете ни слова? К тому же Крюшо с ужасом обнаруживает, что его дочь Николь, вопреки воле отца, зайцем отправляется в Нью - Йорк на поиски мужчины своей жизни. Если это откроется - его карьере конец...
Релиз группы
Качество: BDRip / рип Blu-ray 1080p Custom 3-Edition (HDClub)
Формат: MP4
Видео кодек: H.264
Аудио кодек: AAC
Видео: 960x408 AR:2.35 1740 kbps 24.000 fps
Аудио №1: [Russian] 2ch 48 kHz 128 kbps - [Dub] Профессиональный (полное дублирование)
Аудио №2: [Russian] 2ch 48 kHz 128 kbps - [MVO] Профессиональный (многоголосый, закадровый) НТВ+
Аудио №3: [Russian] 2ch 48 kHz 128 kbps - [MVO] Профессиональный (многоголосый, закадровый) РенТВ
Аудио №4: [Russian] 2ch 48 kHz 128 kbps - [MVO] Профессиональный (многоголосый, закадровый) Останкино
Аудио №5: [Russian] 2ch 48 kHz 128 kbps - [MVO] Профессиональный (многоголосый, закадровый) ТНТ
Аудио №6: [Russian] 2ch 48 kHz 128 kbps - [MVO] Профессиональный (многоголосый, закадровый) SomeWax
Аудио №7: [Ukrainian] 2ch 48 kHz 128 kbps - [MVO] Профессиональный (многоголосый, закадровый)
Аудио №8: [Russian] 2ch 48 kHz 128 kbps - [VO] Авторский (одноголосый, закадровый) Дьяконов Константин
Аудио №9: [Russian] 2ch 48 kHz 128 kbps - [VO] Авторский (одноголосый, закадровый) Козлов Сергей
Аудио №10: [Russian] 2ch 48 kHz 128 kbps - [VO] Одноголосый (закадровый) Янкелевич Роман
Аудио №11: [French] 2ch 48 kHz 128 kbps - [Original]
<div class="sp-wrap">
<div class="sp-head folded">Logx264</div>
<div class="sp-body">avs [info]: 960x408p 1:1 @ 24/1 fps (cfr)
x264 [info]: using SAR=1/1
x264 [info]: using cpu capabilities: MMX2 SSE2Fast SSSE3 SSE4.2 AVX FMA3 AVX2 LZCNT BMI2
x264 [info]: profile High, level 4.1

x264 [info]: frame I:946 Avg QP:20.03 size: 59420
x264 [info]: frame P:33720 Avg QP:23.14 size: 18067
x264 [info]: frame B:111928 Avg QP:24.70 size: 5921
x264 [info]: consecutive B-frames: 1.6% 2.6% 8.3% 34.4% 20.5% 26.6% 3.4% 1.7% 0.8%
x264 [info]: mb I I16..4: 1.7% 78.3% 19.9%
x264 [info]: mb P I16..4: 0.1% 6.0% 1.5% P16..4: 37.6% 39.9% 13.3% 0.0% 0.0% skip: 1.5%
x264 [info]: mb B I16..4: 0.0% 0.6% 0.2% B16..8: 38.2% 20.8% 3.7% direct: 4.9% skip:31.6% L0:42.7% L1:42.3% BI:15.0%
x264 [info]: 8x8 transform intra:78.6% inter:63.2%
x264 [info]: direct mvs spatial:98.9% temporal:1.1%
x264 [info]: coded y,uvDC,uvAC intra: 95.2% 82.4% 49.4% inter: 28.5% 24.0% 4.1%
x264 [info]: i16 v,h,dc,p: 41% 22% 5% 31%
x264 [info]: i8 v,h,dc,ddl,ddr,vr,hd,vl,hu: 14% 7% 3% 9% 15% 14% 14% 12% 11%
x264 [info]: i4 v,h,dc,ddl,ddr,vr,hd,vl,hu: 13% 8% 2% 8% 16% 15% 15% 11% 12%
x264 [info]: i8c dc,h,v,p: 33% 24% 25% 18%
x264 [info]: Weighted P-Frames: Y:17.2% UV:6.1%
x264 [info]: ref P L0: 43.6% 16.2% 15.6% 6.2% 5.3% 4.0% 3.9% 2.2% 2.5% 0.5% 0.0%
x264 [info]: ref B L0: 76.1% 9.7% 5.6% 2.9% 2.1% 1.9% 1.2% 0.5%
x264 [info]: ref B L1: 95.5% 4.5%
x264 [info]: kb/s:1739.59

encoded 146594 frames, 14.47 fps, 1739.59 kb/s
GeneralComplete name : D:\Torrents\Жандармы Гексалогия.1964-1982.BDRip.x264.960x\Жандарм в Нью-Йорке.1965.BDRip.x264.960x.rip by Frost O.S.mp4Format : MPEG-4Format profile : Base MediaCodec ID : isom (isom/avc1/iso2)File size : 2.27 GiBDuration : 1 h 41 minOverall bit rate mode : VariableOverall bit rate : 3 187 kb/sMovie name : Жандарм в Нью-Йорке 1965 BDRip x264 960x rip by Frost O SDirector : Жан Жиро / Jean GiraultActor : Луи де Фюнес (Maréchal des logis-chef Ludovic Cruchot) / Мишель Галабрю (Adjudant Jérôme Gerber) / Кристиан Марен (Maréchal des Logis Albert Merlot) / Ги Гроссо (Maréchal des Logis Tricard) / Мишель Модо (Maréchal des Logis Berlicot) / Алан Скотт (Franck) / Жан Лефевр (Maréchal des Logis Lucien Fougasse) / Женевьев Град (Nicole Cruchot) / Марино Мазе (Aldo) / Марио Пизу (L'adjudant Renzo) / Альбер Ожье (Le présentateur de la publicité) / Жан-Пьер Бертран (Le copain de Nicole)Genre : ComedyContentType : Short FilmEncoded date : UTC 2017-03-18 11:37:40Tagged date : UTC 2017-03-18 11:47:04Writing application : MkvToMp4 version: 0.224 (x64)Cover : YesComment : rip by Frost O.SLongDescription : Дружная бригада французских полицейских отправляется в Нью - Йорк, где им поручено представлять Францию на международном конгрессе полицейских. Крюшо, Мерло, Фугас, Трикар и Берлико во главе с сержантом Жербером пускаются в дальний путь. Как не уронить чести мундира, если вас ждет страна соблазнов, да и по - английски вы не знаете ни слова? К тому же Крюшо с ужасом обнаруживает, что его дочь Николь, вопреки воле отца, зайцем отправляется в Нью - Йорк на поиски мужчины своей жизни. Если это откроется - его карьере конец...

VideoID : 1Format : AVCFormat/Info : Advanced Video CodecFormat profile : [email protected] settings, CABAC : YesFormat settings, ReFrames : 9 framesCodec ID : avc1Codec ID/Info : Advanced Video CodingDuration : 1 h 41 minBit rate : 1 740 kb/sMaximum bit rate : 4 326 kb/sWidth : 960 pixelsHeight : 408 pixelsDisplay aspect ratio : 2.35:1Frame rate mode : ConstantFrame rate : 24.000 FPSColor space : YUVChroma subsampling : 4:2:0Bit depth : 8 bitsScan type : ProgressiveBits/(Pixel*Frame) : 0.185Stream size : 1.24 GiB (55%)Writing library : x264 core 148 r2744 b97ae06Encoding settings : cabac=1 / ref=9 / deblock=1:-1:-1 / analyse=0x3:0x113 / me=umh / subme=11 / psy=1 / psy_rd=1.10:0.00 / mixed_ref=1 / me_range=32 / chroma_me=1 / trellis=2 / 8x8dct=1 / cqm=0 / deadzone=21,11 / fast_pskip=0 / chroma_qp_offset=-2 / threads=6 / lookahead_threads=1 / sliced_threads=0 / nr=0 / decimate=0 / interlaced=0 / bluray_compat=0 / constrained_intra=0 / bframes=8 / b_pyramid=2 / b_adapt=2 / b_bias=0 / direct=3 / weightb=1 / open_gop=0 / weightp=2 / keyint=250 / keyint_min=24 / scenecut=40 / intra_refresh=0 / rc=2pass / mbtree=0 / bitrate=1740 / ratetol=1.0 / qcomp=0.60 / qpmin=0 / qpmax=69 / qpstep=4 / cplxblur=20.0 / qblur=0.5 / ip_ratio=1.40 / pb_ratio=1.30 / aq=1:0.80Language : EnglishEncoded date : UTC 2017-03-18 11:37:40Tagged date : UTC 2017-03-18 11:39:44Color range : LimitedColor primaries : BT.709Transfer characteristics : BT.709Matrix coefficients : BT.709

Audio #1ID : 2Format : AACFormat/Info : Advanced Audio CodecFormat profile : LCCodec ID : 40Duration : 1 h 41 minBit rate mode : VariableBit rate : 128 kb/sMaximum bit rate : 135 kb/sChannel(s) : 2 channelsChannel positions : Front: L RSampling rate : 48.0 kHzFrame rate : 46.875 FPS (1024 spf)Compression mode : LossyStream size : 93.2 MiB (4%)Title : Dub / DubLanguage : RussianDefault : YesAlternate group : 1Encoded date : UTC 2017-03-18 11:38:21Tagged date : UTC 2017-03-18 11:39:44

Audio #2ID : 3Format : AACFormat/Info : Advanced Audio CodecFormat profile : LCCodec ID : 40Duration : 1 h 41 minBit rate mode : VariableBit rate : 128 kb/sMaximum bit rate : 135 kb/sChannel(s) : 2 channelsChannel positions : Front: L RSampling rate : 48.0 kHzFrame rate : 46.875 FPS (1024 spf)Compression mode : LossyStream size : 93.2 MiB (4%)Title : MVO_ HTB_ / MVO_ HTB_Language : RussianDefault : NoAlternate group : 1Encoded date : UTC 2017-03-18 11:38:28Tagged date : UTC 2017-03-18 11:39:44

Audio #3ID : 4Format : AACFormat/Info : Advanced Audio CodecFormat profile : LCCodec ID : 40Duration : 1 h 41 minBit rate mode : VariableBit rate : 128 kb/sMaximum bit rate : 135 kb/sChannel(s) : 2 channelsChannel positions : Front: L RSampling rate : 48.0 kHzFrame rate : 46.875 FPS (1024 spf)Compression mode : LossyStream size : 93.2 MiB (4%)Title : MVO_ RenTV / MVO_ RenTVLanguage : RussianDefault : NoAlternate group : 1Encoded date : UTC 2017-03-18 11:38:36Tagged date : UTC 2017-03-18 11:39:44

Audio #4ID : 5Format : AACFormat/Info : Advanced Audio CodecFormat profile : LCCodec ID : 40Duration : 1 h 41 minBit rate mode : VariableBit rate : 128 kb/sMaximum bit rate : 135 kb/sChannel(s) : 2 channelsChannel positions : Front: L RSampling rate : 48.0 kHzFrame rate : 46.875 FPS (1024 spf)Compression mode : LossyStream size : 93.2 MiB (4%)Title : MVO_ Ostankino / MVO_ OstankinoLanguage : RussianDefault : NoAlternate group : 1Encoded date : UTC 2017-03-18 11:38:45Tagged date : UTC 2017-03-18 11:39:44

Audio #5ID : 6Format : AACFormat/Info : Advanced Audio CodecFormat profile : LCCodec ID : 40Duration : 1 h 41 minBit rate mode : VariableBit rate : 128 kb/sMaximum bit rate : 135 kb/sChannel(s) : 2 channelsChannel positions : Front: L RSampling rate : 48.0 kHzFrame rate : 46.875 FPS (1024 spf)Compression mode : LossyStream size : 93.2 MiB (4%)Title : MVO_ THT / MVO_ THTLanguage : RussianDefault : NoAlternate group : 1Encoded date : UTC 2017-03-18 11:38:53Tagged date : UTC 2017-03-18 11:39:44

Audio #6ID : 7Format : AACFormat/Info : Advanced Audio CodecFormat profile : LCCodec ID : 40Duration : 1 h 41 minBit rate mode : VariableBit rate : 128 kb/sMaximum bit rate : 132 kb/sChannel(s) : 2 channelsChannel positions : Front: L RSampling rate : 48.0 kHzFrame rate : 46.875 FPS (1024 spf)Compression mode : LossyStream size : 93.2 MiB (4%)Title : MVO_ SomeWax / MVO_ SomeWaxLanguage : RussianDefault : NoAlternate group : 1Encoded date : UTC 2017-03-18 11:38:57Tagged date : UTC 2017-03-18 11:39:44

Audio #7ID : 8Format : AACFormat/Info : Advanced Audio CodecFormat profile : LCCodec ID : 40Duration : 1 h 41 minBit rate mode : VariableBit rate : 128 kb/sMaximum bit rate : 135 kb/sChannel(s) : 2 channelsChannel positions : Front: L RSampling rate : 48.0 kHzFrame rate : 46.875 FPS (1024 spf)Compression mode : LossyStream size : 93.2 MiB (4%)Title : MVO / MVOLanguage : UkrainianDefault : NoAlternate group : 1Encoded date : UTC 2017-03-18 11:39:04Tagged date : UTC 2017-03-18 11:39:44

Audio #8ID : 9Format : AACFormat/Info : Advanced Audio CodecFormat profile : LCCodec ID : 40Duration : 1 h 41 minBit rate mode : VariableBit rate : 128 kb/sMaximum bit rate : 134 kb/sChannel(s) : 2 channelsChannel positions : Front: L RSampling rate : 48.0 kHzFrame rate : 46.875 FPS (1024 spf)Compression mode : LossyStream size : 93.2 MiB (4%)Title : VO_ Dyakonov / VO_ DyakonovLanguage : RussianDefault : NoAlternate group : 1Encoded date : UTC 2017-03-18 11:39:14Tagged date : UTC 2017-03-18 11:39:44

Audio #9ID : 10Format : AACFormat/Info : Advanced Audio CodecFormat profile : LCCodec ID : 40Duration : 1 h 41 minBit rate mode : VariableBit rate : 128 kb/sMaximum bit rate : 134 kb/sChannel(s) : 2 channelsChannel positions : Front: L RSampling rate : 48.0 kHzFrame rate : 46.875 FPS (1024 spf)Compression mode : LossyStream size : 93.2 MiB (4%)Title : VO_ Kozlov / VO_ KozlovLanguage : RussianDefault : NoAlternate group : 1Encoded date : UTC 2017-03-18 11:39:21Tagged date : UTC 2017-03-18 11:39:44

Audio #10ID : 11Format : AACFormat/Info : Advanced Audio CodecFormat profile : LCCodec ID : 40Duration : 1 h 41 minBit rate mode : VariableBit rate : 128 kb/sMaximum bit rate : 132 kb/sChannel(s) : 2 channelsChannel positions : Front: L RSampling rate : 48.0 kHzFrame rate : 46.875 FPS (1024 spf)Compression mode : LossyStream size : 93.2 MiB (4%)Title : VO_ Yankelevich / VO_ YankelevichLanguage : RussianDefault : NoAlternate group : 1Encoded date : UTC 2017-03-18 11:39:27Tagged date : UTC 2017-03-18 11:39:44

Audio #11ID : 12Format : AACFormat/Info : Advanced Audio CodecFormat profile : LCCodec ID : 40Duration : 1 h 41 minBit rate mode : VariableBit rate : 128 kb/sMaximum bit rate : 131 kb/sChannel(s) : 2 channelsChannel positions : Front: L RSampling rate : 48.0 kHzFrame rate : 46.875 FPS (1024 spf)Compression mode : LossyStream size : 93.2 MiB (4%)Title : Original / OriginalLanguage : FrenchDefault : NoAlternate group : 1Encoded date : UTC 2017-03-18 11:39:36Tagged date : UTC 2017-03-18 11:39:44

Text #1ID : 13Format : Timed TextMuxing mode : sbtlCodec ID : tx3gDuration : 1 h 40 minBit rate mode : VariableBit rate : 87 b/sStream size : 64.2 KiB (0%)Title : Full / FullLanguage : RussianDefault : YesForced : NoAlternate group : 2Encoded date : UTC 2017-03-18 11:39:44Tagged date : UTC 2017-03-18 11:39:44

Text #2ID : 14Format : Timed TextMuxing mode : sbtlCodec ID : tx3gDuration : 1 h 40 minBit rate mode : VariableBit rate : 33 b/sStream size : 24.4 KiB (0%)Title : Full / FullLanguage : EnglishDefault : NoForced : NoAlternate group : 2Encoded date : UTC 2017-03-18 11:39:44Tagged date : UTC 2017-03-18 11:39:44

Text #3ID : 15Format : Timed TextMuxing mode : sbtlCodec ID : tx3gDuration : 1 h 41 minBit rate mode : VariableBit rate : 53 b/sStream size : 39.2 KiB (0%)Title : Full / FullLanguage : FrenchDefault : NoForced : NoAlternate group : 2Encoded date : UTC 2017-03-18 11:39:44Tagged date : UTC 2017-03-18 11:39:44
</div>
</div>
Жандарм женится / Le gendarme se marie

Год выпуска: 1968
Страна: Франция, Италия
Жанр: комедия
Продолжительность: 01:29:18
Перевод №1: Русский Профессиональный (полное дублирование)
Перевод №2: Русский Профессиональный (многоголосый, закадровый) НТВ+
Перевод №3: Русский Профессиональный (многоголосый, закадровый) РенТВ
Перевод №4: Русский Профессиональный (многоголосый, закадровый) Останкино
Перевод №5: Русский Профессиональный (многоголосый, закадровый) ОРТ
Перевод №6: Русский Профессиональный (многоголосый, закадровый) SomeWax
Перевод №7: Украинский Профессиональный (многоголосый, закадровый)
Перевод №8: Русский Авторский (одноголосый, закадровый) Дьяконов Константин|
Перевод №9: Русский Авторский (одноголосый, закадровый) Козлов Сергей
Оригинальная дорожка: Есть
Cубтитры: русские (полные), английские (полные), французские (полные)
Режиссер: Жан Жиро / Jean Girault
В ролях: Луи де Фюнес (Maréchal des Logis-chef Ludovic Cruchot), Жан Лефевр (Maréchal des Logis Lucien Fougasse), Женевьев Град (Nicole Cruchot), Кристиан Марен (Maréchal des Logis Albert Merlot), Ив Венсан (Le colonel), Ги Гроссо (Maréchal des Logis Berlicot), Мишель Модо (Maréchal des Logis Tricard), Маурицио Бонулья (L'ami de Nicole / Nicole's Fiance), Марио Давид (Le malfrat), Клоди Жансак (Josépha Cruchot), Мишель Галабрю (Adjudant Jérôme Gerber), Николь Вервиль (Mme Gerber) и другие .
Описание: Пробил долгожданный «Час Икс». На календаре у старшины жандармов первое июля, а это значит, что во Франции настало время всеобщих отпусков.
Толпы обезумевших от жажды развлечений туристов ринулись к морю, и наши старые знакомые - блюстители порядка из курортного Сен-Тропе - должны во что бы то ни стало, любой ценой сдержать бурный натиск отдыхающих.
И вот, за отчаянно-быструю езду по горным дорогам Крюшо арестовывает очаровательную Жозефу, которая оказывается вдовой полковника жандармерии.
Релиз группы
Качество: BDRip / рип Blu-ray 1080p Custom 3-Edition (HDClub)
Формат: MP4
Видео кодек: H.264
Аудио кодек: AAC
Видео: 960x408 AR:2.35 2104 kbps 24.000 fps
Аудио №1: [Russian] 2ch 48 kHz 128 kbps - [Dub] Профессиональный (полное дублирование)
Аудио №2: [Russian] 2ch 48 kHz 128 kbps - [MVO] Профессиональный (многоголосый, закадровый) НТВ+
Аудио №3: [Russian] 2ch 48 kHz 128 kbps - [MVO] Профессиональный (многоголосый, закадровый) РенТВ
Аудио №4: [Russian] 2ch 48 kHz 128 kbps - [MVO] Профессиональный (многоголосый, закадровый) Останкино
Аудио №5: [Russian] 2ch 48 kHz 128 kbps - [MVO] Профессиональный (многоголосый, закадровый) ОРТ
Аудио №6: [Russian] 2ch 48 kHz 128 kbps - [MVO] Профессиональный (многоголосый, закадровый) SomeWax
Аудио №7: [Ukrainian] 2ch 48 kHz 128 kbps - [MVO] Профессиональный (многоголосый, закадровый)
Аудио №8: [Russian] 2ch 48 kHz 128 kbps - [VO] Авторский (одноголосый, закадровый) Дьяконов Константин
Аудио №9: [Russian] 2ch 48 kHz 128 kbps - [VO] Авторский (одноголосый, закадровый) Козлов Сергей
Аудио №10: [French] 2ch 48 kHz 128 kbps - [Original]
<div class="sp-wrap">
<div class="sp-head folded">Logx264</div>
<div class="sp-body">avs [info]: 960x408p 1:1 @ 24/1 fps (cfr)
x264 [info]: using SAR=1/1
x264 [info]: using cpu capabilities: MMX2 SSE2Fast SSSE3 SSE4.2 AVX FMA3 AVX2 LZCNT BMI2
x264 [info]: profile High, level 4.1

x264 [info]: frame I:928 Avg QP:23.10 size: 57586
x264 [info]: frame P:25942 Avg QP:24.57 size: 22334
x264 [info]: frame B:101739 Avg QP:26.30 size: 7636
x264 [info]: consecutive B-frames: 1.1% 0.9% 4.2% 24.7% 19.0% 40.8% 5.1% 2.1% 2.3%
x264 [info]: mb I I16..4: 3.2% 80.5% 16.3%
x264 [info]: mb P I16..4: 0.4% 9.1% 1.8% P16..4: 40.2% 29.3% 15.6% 0.0% 0.0% skip: 3.5%
x264 [info]: mb B I16..4: 0.0% 0.6% 0.2% B16..8: 46.2% 12.4% 4.2% direct: 6.3% skip:30.2% L0:44.8% L1:45.4% BI: 9.8%
x264 [info]: 8x8 transform intra:79.7% inter:60.8%
x264 [info]: coded y,uvDC,uvAC intra: 95.4% 73.8% 35.0% inter: 32.8% 19.8% 0.7%
x264 [info]: i16 v,h,dc,p: 51% 32% 6% 11%
x264 [info]: i8 v,h,dc,ddl,ddr,vr,hd,vl,hu: 10% 7% 5% 10% 15% 15% 14% 11% 12%
x264 [info]: i4 v,h,dc,ddl,ddr,vr,hd,vl,hu: 12% 9% 2% 9% 15% 16% 14% 12% 11%
x264 [info]: i8c dc,h,v,p: 34% 27% 22% 17%
x264 [info]: Weighted P-Frames: Y:24.9% UV:8.4%
x264 [info]: ref P L0: 41.0% 14.9% 16.3% 7.2% 6.0% 4.5% 4.3% 2.5% 2.7% 0.7% 0.0%
x264 [info]: ref B L0: 73.4% 10.3% 6.0% 3.4% 2.6% 2.3% 1.4% 0.5%
x264 [info]: ref B L1: 94.9% 5.1%
x264 [info]: kb/s:2104.49

encoded 128609 frames, 15.22 fps, 2104.49 kb/s
GeneralComplete name : D:\Torrents\Жандармы Гексалогия.1964-1982.BDRip.x264.960x\Жандарм женится.1968.BDRip.x264.960x.rip by Frost O.S.mp4Format : MPEG-4Format profile : Base MediaCodec ID : isom (isom/avc1/iso2)File size : 2.13 GiBDuration : 1 h 29 minOverall bit rate mode : VariableOverall bit rate : 3 421 kb/sMovie name : Жандарм женится 1968 BDRip x264 960x rip by Frost O SDirector : Жан Жиро / Jean GiraultActor : Луи де Фюнес (Maréchal des Logis-chef Ludovic Cruchot) / Жан Лефевр (Maréchal des Logis Lucien Fougasse) / Женевьев Град (Nicole Cruchot) / Кристиан Марен (Maréchal des Logis Albert Merlot) / Ив Венсан (Le colonel) / Ги Гроссо (Maréchal des Logis Berlicot) / Мишель Модо (Maréchal des Logis Tricard) / Маурицио Бонулья (L'ami de Nicole / Nicole's Fiance) / Марио Давид (Le malfrat) / Клоди Жансак (Josépha Cruchot) / Мишель Галабрю (Adjudant Jérôme Gerber) / Николь Вервиль (Mme Gerber)Genre : ComedyContentType : Short FilmEncoded date : UTC 2017-03-18 11:59:34Tagged date : UTC 2017-03-18 12:07:29Writing application : MkvToMp4 version: 0.224 (x64)Cover : YesComment : rip by Frost O.SLongDescription : Пробил долгожданный «Час Икс». На календаре у старшины жандармов первое июля, а это значит, что во Франции настало время всеобщих отпусков. Толпы обезумевших от жажды развлечений туристов ринулись к морю, и наши старые знакомые - блюстители порядка из курортного Сен-Тропе - должны во что бы то ни стало, любой ценой сдержать бурный натиск отдыхающих. И вот, за отчаянно-быструю езду по горным дорогам Крюшо арестовывает очаровательную Жозефу, которая оказывается вдовой полковника жандармерии.

VideoID : 1Format : AVCFormat/Info : Advanced Video CodecFormat profile : [email protected] settings, CABAC : YesFormat settings, ReFrames : 9 framesCodec ID : avc1Codec ID/Info : Advanced Video CodingDuration : 1 h 29 minBit rate : 2 104 kb/sMaximum bit rate : 7 282 kb/sWidth : 960 pixelsHeight : 408 pixelsDisplay aspect ratio : 2.35:1Frame rate mode : ConstantFrame rate : 24.000 FPSColor space : YUVChroma subsampling : 4:2:0Bit depth : 8 bitsScan type : ProgressiveBits/(Pixel*Frame) : 0.224Stream size : 1.31 GiB (62%)Writing library : x264 core 148 r2744 b97ae06Encoding settings : cabac=1 / ref=9 / deblock=1:-1:-1 / analyse=0x3:0x113 / me=umh / subme=9 / psy=1 / psy_rd=1.10:0.00 / mixed_ref=1 / me_range=24 / chroma_me=1 / trellis=2 / 8x8dct=1 / cqm=0 / deadzone=21,11 / fast_pskip=1 / chroma_qp_offset=-2 / threads=6 / lookahead_threads=1 / sliced_threads=0 / nr=0 / decimate=1 / interlaced=0 / bluray_compat=0 / constrained_intra=0 / bframes=8 / b_pyramid=2 / b_adapt=2 / b_bias=0 / direct=1 / weightb=1 / open_gop=0 / weightp=2 / keyint=250 / keyint_min=24 / scenecut=40 / intra_refresh=0 / rc=crf / mbtree=0 / crf=20.8 / qcomp=0.60 / qpmin=0 / qpmax=69 / qpstep=4 / ip_ratio=1.40 / pb_ratio=1.30 / aq=1:0.80Language : EnglishEncoded date : UTC 2017-03-18 11:59:34Tagged date : UTC 2017-03-18 12:01:50Color range : LimitedColor primaries : BT.709Transfer characteristics : BT.709Matrix coefficients : BT.709

Audio #1ID : 2Format : AACFormat/Info : Advanced Audio CodecFormat profile : LCCodec ID : 40Duration : 1 h 29 minBit rate mode : VariableBit rate : 128 kb/sMaximum bit rate : 135 kb/sChannel(s) : 2 channelsChannel positions : Front: L RSampling rate : 48.0 kHzFrame rate : 46.875 FPS (1024 spf)Compression mode : LossyStream size : 81.8 MiB (4%)Title : Dub / DubLanguage : RussianDefault : YesAlternate group : 1Encoded date : UTC 2017-03-18 12:00:38Tagged date : UTC 2017-03-18 12:01:50

Audio #2ID : 3Format : AACFormat/Info : Advanced Audio CodecFormat profile : LCCodec ID : 40Duration : 1 h 29 minBit rate mode : VariableBit rate : 128 kb/sMaximum bit rate : 135 kb/sChannel(s) : 2 channelsChannel positions : Front: L RSampling rate : 48.0 kHzFrame rate : 46.875 FPS (1024 spf)Compression mode : LossyStream size : 81.8 MiB (4%)Title : MVO_ HTB_ / MVO_ HTB_Language : RussianDefault : NoAlternate group : 1Encoded date : UTC 2017-03-18 12:00:44Tagged date : UTC 2017-03-18 12:01:50

Audio #3ID : 4Format : AACFormat/Info : Advanced Audio CodecFormat profile : LCCodec ID : 40Duration : 1 h 29 minBit rate mode : VariableBit rate : 128 kb/sMaximum bit rate : 135 kb/sChannel(s) : 2 channelsChannel positions : Front: L RSampling rate : 48.0 kHzFrame rate : 46.875 FPS (1024 spf)Compression mode : LossyStream size : 81.8 MiB (4%)Title : MVO_ RenTV / MVO_ RenTVLanguage : RussianDefault : NoAlternate group : 1Encoded date : UTC 2017-03-18 12:00:51Tagged date : UTC 2017-03-18 12:01:50

Audio #4ID : 5Format : AACFormat/Info : Advanced Audio CodecFormat profile : LCCodec ID : 40Duration : 1 h 29 minBit rate mode : VariableBit rate : 128 kb/sMaximum bit rate : 134 kb/sChannel(s) : 2 channelsChannel positions : Front: L RSampling rate : 48.0 kHzFrame rate : 46.875 FPS (1024 spf)Compression mode : LossyStream size : 81.8 MiB (4%)Title : MVO_ Ostankino / MVO_ OstankinoLanguage : RussianDefault : NoAlternate group : 1Encoded date : UTC 2017-03-18 12:00:58Tagged date : UTC 2017-03-18 12:01:50

Audio #5ID : 6Format : AACFormat/Info : Advanced Audio CodecFormat profile : LCCodec ID : 40Duration : 1 h 29 minBit rate mode : VariableBit rate : 128 kb/sMaximum bit rate : 135 kb/sChannel(s) : 2 channelsChannel positions : Front: L RSampling rate : 48.0 kHzFrame rate : 46.875 FPS (1024 spf)Compression mode : LossyStream size : 81.8 MiB (4%)Title : MVO_ OPT / MVO_ OPTLanguage : RussianDefault : NoAlternate group : 1Encoded date : UTC 2017-03-18 12:01:06Tagged date : UTC 2017-03-18 12:01:50

Audio #6ID : 7Format : AACFormat/Info : Advanced Audio CodecFormat profile : LCCodec ID : 40Duration : 1 h 29 minBit rate mode : VariableBit rate : 128 kb/sMaximum bit rate : 135 kb/sChannel(s) : 2 channelsChannel positions : Front: L RSampling rate : 48.0 kHzFrame rate : 46.875 FPS (1024 spf)Compression mode : LossyStream size : 81.8 MiB (4%)Title : MVO_ SomeWax / MVO_ SomeWaxLanguage : RussianDefault : NoAlternate group : 1Encoded date : UTC 2017-03-18 12:01:14Tagged date : UTC 2017-03-18 12:01:50

Audio #7ID : 8Format : AACFormat/Info : Advanced Audio CodecFormat profile : LCCodec ID : 40Duration : 1 h 29 minBit rate mode : VariableBit rate : 128 kb/sMaximum bit rate : 135 kb/sChannel(s) : 2 channelsChannel positions : Front: L RSampling rate : 48.0 kHzFrame rate : 46.875 FPS (1024 spf)Compression mode : LossyStream size : 81.8 MiB (4%)Title : MVO / MVOLanguage : UkrainianDefault : NoAlternate group : 1Encoded date : UTC 2017-03-18 12:01:21Tagged date : UTC 2017-03-18 12:01:50

Audio #8ID : 9Format : AACFormat/Info : Advanced Audio CodecFormat profile : LCCodec ID : 40Duration : 1 h 29 minBit rate mode : VariableBit rate : 128 kb/sMaximum bit rate : 134 kb/sChannel(s) : 2 channelsChannel positions : Front: L RSampling rate : 48.0 kHzFrame rate : 46.875 FPS (1024 spf)Compression mode : LossyStream size : 81.8 MiB (4%)Title : VO_ Dyakonov / VO_ DyakonovLanguage : RussianDefault : NoAlternate group : 1Encoded date : UTC 2017-03-18 12:01:27Tagged date : UTC 2017-03-18 12:01:50

Audio #9ID : 10Format : AACFormat/Info : Advanced Audio CodecFormat profile : LCCodec ID : 40Duration : 1 h 29 minBit rate mode : VariableBit rate : 128 kb/sMaximum bit rate : 135 kb/sChannel(s) : 2 channelsChannel positions : Front: L RSampling rate : 48.0 kHzFrame rate : 46.875 FPS (1024 spf)Compression mode : LossyStream size : 81.8 MiB (4%)Title : VO_ Kozlov / VO_ KozlovLanguage : RussianDefault : NoAlternate group : 1Encoded date : UTC 2017-03-18 12:01:36Tagged date : UTC 2017-03-18 12:01:50

Audio #10ID : 11Format : AACFormat/Info : Advanced Audio CodecFormat profile : LCCodec ID : 40Duration : 1 h 29 minBit rate mode : VariableBit rate : 128 kb/sMaximum bit rate : 135 kb/sChannel(s) : 2 channelsChannel positions : Front: L RSampling rate : 48.0 kHzFrame rate : 46.875 FPS (1024 spf)Compression mode : LossyStream size : 81.8 MiB (4%)Title : Original / OriginalLanguage : FrenchDefault : NoAlternate group : 1Encoded date : UTC 2017-03-18 12:01:43Tagged date : UTC 2017-03-18 12:01:50

Text #1ID : 12Format : Timed TextMuxing mode : sbtlCodec ID : tx3gDuration : 1 h 27 minBit rate mode : VariableBit rate : 78 b/sStream size : 50.1 KiB (0%)Title : Full / FullLanguage : RussianDefault : YesForced : NoAlternate group : 2Encoded date : UTC 2017-03-18 12:01:50Tagged date : UTC 2017-03-18 12:01:50

Text #2ID : 13Format : Timed TextMuxing mode : sbtlCodec ID : tx3gDuration : 1 h 27 minBit rate mode : VariableBit rate : 37 b/sStream size : 23.7 KiB (0%)Title : Full / FullLanguage : EnglishDefault : NoForced : NoAlternate group : 2Encoded date : UTC 2017-03-18 12:01:50Tagged date : UTC 2017-03-18 12:01:50

Text #3ID : 14Format : Timed TextMuxing mode : sbtlCodec ID : tx3gDuration : 1 h 27 minBit rate mode : VariableBit rate : 51 b/sStream size : 33.0 KiB (0%)Title : Full / FullLanguage : FrenchDefault : NoForced : NoAlternate group : 2Encoded date : UTC 2017-03-18 12:01:50Tagged date : UTC 2017-03-18 12:01:50
</div>
</div>


Трекер:  [ 18-Мар-2017 16:30 ]

  

Скачать .torrent

Размер .torrent файла 33 KB


Размер: 12.81 GB
Хэш (hash) релиза: f2a55655cb7939586756ff49037f830d6dba19ec

Еще никто не оставлял запись к записи скачать торрент [VIDEO] Жандармы: Гексалогия Les gendarmes: Hexalogie . Будь первым!

!Обратная связь