Beyonc: Lemonade (2016) | The Handmaid’s Tale : la servante écarlate | Ihr Auftrag, Pater Castell

Скачать через торрент [VIDEO] Заклятие The Conjuring бесплатно русская версия torrent активатор

Статистика раздачи
Размер:  2.24 GB   |    Зарегистрирован:  1 год 3 месяца   |    .torrent скачан:  27 раз   |   
Раздают:  1  
   
загрузка...
 
Автор Сообщение

Galfimbul

avatar Galfimbul


Заклятие / The Conjuring
«Based on the true case files of the Warrens»
Год выпуска: 2013
Оригинальное название: The Conjuring
Страна: США
Жанр: ужасы, триллер
Возраст: 16+

Режиссер: Джеймс Ван / James Wan

В ролях: Вера Фармига, Патрик Уилсон, Рон Ливингстон, Лили Тейлор, Шэнли Касвелл, Хейли МакФарланд, Джои Кинг, Маккензи Фой, Кайла Дивер, Шэнон Кук-Чан

Описание: Фильм основан на реальных событиях из практики Эда и Лоррейн Уоррен. Пугающая история Эда и Лоррейн Уоррен, всемирно известных детективов, занимающихся паранормальными расследованиями. К ним за помощью обратилась семья, терроризируемая темным духом на уединенной ферме. Вынужденные сражаться с могущественной демонической сущностью Уоррены сталкиваются с самым пугающим случаем в своей жизни.

Продолжительность: 01:51:58
Перевод: Дублированный [Blu-ray CEE]
Оригинальная дорожка: есть

Автор рипа:

Качество видео: BDRip Исходник: Blu-Ray Remux (1080p) Формат: mp4
Видео кодек: MPEG-4 AVC Аудио кодек: AAC
Видео: 1280x532 (2.40:1) at 23.976 fps, AVC at 2 598 kbps avg, 0.159 bit/pixel
Аудио №1 Rus: 48.0 KHz, AAC, 2 ch, 128.0 Kbps
Аудио №2 Eng: 48.0 KHz, AAC, 2 ch, 128.0 Kbps
Субтитры: русские (форсированные, полные), английские (полные)
Навигация по главам: есть
Размер: 2.24 GiB
avs [info]: 1280x532p 1:1 @ 24000/1001 fps (cfr)
x264 [info]: using SAR=1/1
x264 [info]: using cpu capabilities: MMX2 SSE2Fast SSSE3 Cache64
x264 [info]: profile High, level 4.1
x264 [info]: frame I:1158 Avg QP:12.94 size: 98281
x264 [info]: frame P:32687 Avg QP:16.26 size: 30401
x264 [info]: frame B:127204 Avg QP:18.20 size: 8444
x264 [info]: consecutive B-frames: 1.7% 1.9% 5.3% 16.5% 19.4% 38.2% 9.2% 4.9% 2.9%
x264 [info]: mb I I16..4: 5.0% 74.4% 20.6%
x264 [info]: mb P I16..4: 1.2% 9.4% 2.0% P16..4: 40.9% 25.4% 13.9% 0.0% 0.0% skip: 7.2%
x264 [info]: mb B I16..4: 0.1% 0.7% 0.2% B16..8: 43.7% 8.6% 1.8% direct: 4.8% skip:40.1% L0:43.6% L1:48.4% BI: 8.0%
x264 [info]: 8x8 transform intra:73.3% inter:61.6%
x264 [info]: coded y,uvDC,uvAC intra: 76.3% 70.7% 41.2% inter: 21.0% 16.9% 1.6%
x264 [info]: i16 v,h,dc,p: 37% 13% 7% 42%
x264 [info]: i8 v,h,dc,ddl,ddr,vr,hd,vl,hu: 23% 12% 22% 5% 8% 8% 7% 8% 7%
x264 [info]: i4 v,h,dc,ddl,ddr,vr,hd,vl,hu: 40% 11% 13% 5% 8% 7% 6% 5% 4%
x264 [info]: i8c dc,h,v,p: 56% 16% 22% 6%
x264 [info]: Weighted P-Frames: Y:5.4% UV:2.0%
x264 [info]: ref P L0: 49.7% 8.9% 16.9% 7.1% 5.4% 4.2% 3.5% 2.1% 2.0% 0.3% 0.0%
x264 [info]: ref B L0: 77.1% 10.7% 5.2% 2.5% 1.9% 1.5% 0.8% 0.3%
x264 [info]: ref B L1: 92.7% 7.3%
x264 [info]: kb/s:2598.28
encoded 161049 frames, 2.62 fps, 2598.28 kb/s
GeneralComplete name : ...\Zaklyatie_2013_KinoGadget.mp4Format : MPEG-4Format profile : Base MediaCodec ID : isom (isom)File size : 2.24 GiBDuration : 1 h 51 minOverall bit rate mode : VariableOverall bit rate : 2 866 kb/sMovie name : Заклятие | KinoGadgetPerformer : Джеймс ВанDirector : Джеймс ВанActor : Вера Фармига / Патрик Уилсон / Рон Ливингстон / Лили Тейлор / Шэнли Касвелл / Хейли МакФарланд / Джои Кинг / Маккензи Фой / Кайла Дивер / Шэнон Кук-ЧанScreenplay by : Чад Хэйес / Кэри ХэйесProducer : Роб Кауэн / Тони ДеРоза-Грюнд / Питер СафранGenre : Horror, ThrillerContentType : Short FilmRecorded date : 2013Encoded date : UTC 2017-03-18 09:05:55Tagged date : UTC 2017-03-18 09:14:33Cover : YesContentRating : mpaa|R|400|LongDescription : Фильм основан на реальных событиях из практики Эда и Лоррейн Уоррен. Пугающая история Эда и Лоррейн Уоррен, всемирно известных детективов, занимающихся паранормальными расследованиями. К ним за помощью обратилась семья, терроризируемая темным духом на уединенной ферме. Вынужденные сражаться с могущественной демонической сущностью Уоррены сталкиваются с самым пугающим случаем в своей жизни.HDVideo : Yes

VideoID : 1Format : AVCFormat/Info : Advanced Video CodecFormat profile : [email protected] settings, CABAC : YesFormat settings, ReFrames : 9 framesCodec ID : avc1Codec ID/Info : Advanced Video CodingDuration : 1 h 51 minBit rate : 2 598 kb/sMaximum bit rate : 24.7 Mb/sWidth : 1 280 pixelsHeight : 532 pixelsDisplay aspect ratio : 2.40:1Frame rate mode : ConstantFrame rate : 23.976 (24000/1001) FPSColor space : YUVChroma subsampling : 4:2:0Bit depth : 8 bitsScan type : ProgressiveBits/(Pixel*Frame) : 0.159Stream size : 2.03 GiB (91%)Writing library : x264 core 148 r2638 7599210Encoding settings : cabac=1 / ref=9 / deblock=1:-2:-1 / analyse=0x3:0x113 / me=umh / subme=7 / psy=1 / psy_rd=1.00:0.00 / mixed_ref=1 / me_range=32 / chroma_me=1 / trellis=2 / 8x8dct=1 / cqm=0 / deadzone=21,11 / fast_pskip=0 / chroma_qp_offset=-2 / threads=3 / lookahead_threads=1 / sliced_threads=0 / nr=0 / decimate=1 / interlaced=0 / bluray_compat=0 / constrained_intra=0 / bframes=8 / b_pyramid=2 / b_adapt=2 / b_bias=0 / direct=1 / weightb=1 / open_gop=0 / weightp=2 / keyint=250 / keyint_min=25 / scenecut=40 / intra_refresh=0 / rc_lookahead=60 / rc=crf / mbtree=1 / crf=17.0 / qcomp=0.60 / qpmin=0 / qpmax=69 / qpstep=4 / vbv_maxrate=62500 / vbv_bufsize=78125 / crf_max=0.0 / nal_hrd=none / filler=0 / ip_ratio=1.40 / aq=1:1.00Encoded date : UTC 2017-03-18 08:28:35Tagged date : UTC 2017-03-18 09:07:05

Audio #1ID : 2Format : AACFormat/Info : Advanced Audio CodecFormat profile : LCCodec ID : 40Duration : 1 h 51 minBit rate mode : VariableBit rate : 128 kb/sMaximum bit rate : 135 kb/sChannel(s) : 2 channelsChannel positions : Front: L RSampling rate : 48.0 kHzFrame rate : 46.875 FPS (1024 spf)Compression mode : LossyStream size : 103 MiB (4%)Title : Dub [Blu-ray CEE]Language : RussianEncoded date : UTC 2017-03-18 08:36:26Tagged date : UTC 2017-03-18 09:07:05

Audio #2ID : 3Format : AACFormat/Info : Advanced Audio CodecFormat profile : LCCodec ID : 40Duration : 1 h 51 minBit rate mode : VariableBit rate : 128 kb/sMaximum bit rate : 135 kb/sChannel(s) : 2 channelsChannel positions : Front: L RSampling rate : 48.0 kHzFrame rate : 46.875 FPS (1024 spf)Compression mode : LossyStream size : 103 MiB (4%)Title : OriginalLanguage : EnglishEncoded date : UTC 2017-03-18 08:48:16Tagged date : UTC 2017-03-18 09:07:05

Text #1ID : 4Format : Timed TextCodec ID : tx3gDuration : 1 h 47 minBit rate mode : VariableBit rate : 2 b/sStream size : 1.82 KiB (0%)Title : ForcedLanguage : RussianForced : NoEncoded date : UTC 2017-03-18 09:07:05Tagged date : UTC 2017-03-18 09:07:05

Text #2ID : 5Format : Timed TextCodec ID : tx3gDuration : 1 h 47 minBit rate mode : VariableBit rate : 64 b/sStream size : 50.3 KiB (0%)Title : FullLanguage : RussianForced : NoEncoded date : UTC 2017-03-18 09:07:05Tagged date : UTC 2017-03-18 09:07:05

Text #3ID : 6Format : Timed TextCodec ID : tx3gDuration : 1 h 45 minBit rate mode : VariableBit rate : 49 b/sStream size : 37.8 KiB (0%)Title : FullLanguage : EnglishForced : NoEncoded date : UTC 2017-03-18 09:07:05Tagged date : UTC 2017-03-18 09:07:05

Menu00:00:00.000 : Chapter 100:08:52.990 : Chapter 200:19:26.665 : Chapter 300:29:15.754 : Chapter 400:40:50.239 : Chapter 500:51:06.730 : Chapter 600:59:55.466 : Chapter 701:10:37.149 : Chapter 801:21:03.108 : Chapter 901:28:59.292 : Chapter 1001:38:10.759 : Chapter 1101:46:08.361 : Chapter 12


Трекер:  [ 18-Мар-2017 12:30 ]

  

Скачать .torrent

Размер .torrent файла 11 KB


Размер: 2.24 GB
Хэш (hash) релиза: d92781b975279596b471a49a76e4510d17b78d15

Еще никто не оставлял запись к записи скачать торрент [VIDEO] Заклятие The Conjuring . Будь первым!

!Обратная связь