Literatura | (1 links) | Fate Stay night Movie: Heaven’s Feel – I. Presage Flower Subtitle Indonesia

Скачать через торрент [VIDEO] Война против всех War on Everyone бесплатно русская версия torrent активатор

Статистика раздачи
Размер:  1.83 GB   |    Зарегистрирован:  1 год 4 месяца   |    .torrent скачан:  30 раз   |   
Раздают:  1  
   
загрузка...
 
Автор Сообщение

Galfimbul

avatar Galfimbul


Война против всех / War on Everyone
«They're gonna kick your ass and get away with it»
Премьера: 12 февраля 2016
Оригинальное название: War on Everyone
Страна: Великобритания
Жанр: комедия, криминал
Возраст: 18+

Режиссер: Джон Майкл МакДона / John Michael McDonagh

В ролях: Александр Скарсгард, Тесса Томпсон, Тео Джеймс, Стефани Сигман, Малкольм Баррет, Майкл Пенья, Тейт Флетчер, Калеб Лэндри Джонс, Пол Райзер, Кит Джардин

Описание: Двое коррумпированных копов-отморозков из Нью-Мексико прессуют всех, кто попадается им под руку… или под колеса авто. Судьба подкидывает им шанс срубить целый миллион долларов, но на смачный куш также претендует эксцентричный английский лорд не без странных пристрастий. В борьбе за заслуженный улов напарники случайно узнают о стрёмных секретах красавчика-лорда и впрягаются нести возмездие. Плохим копам не терпится попробовать нечто совсем новое — борьбу за справедливость… ну, за то, как они понимают справедливость.

Продолжительность: 01:37:54
Перевод: Дублированный [Лицензия]
Оригинальная дорожка: нет

Автор рипа:

Качество видео: BDRip Исходник: Blu-Ray Remux (1080p) Формат: mp4
Видео кодек: MPEG-4 AVC Аудио кодек: AAC
Видео: 1280x536 (2.40:1) at 24.000 fps, AVC at 2 541 kbps avg, 0.154 bit/pixel
Аудио №1 Rus: 48.0 KHz, AAC, 2 ch, 128.0 Kbps
Субтитры: русские (форсированные)
Навигация по главам: есть
Размер: 1.83 GiB
avs [info]: 1280x536p 1:1 @ 24/1 fps (cfr)
x264 [info]: using SAR=1/1
x264 [info]: using cpu capabilities: MMX2 SSE2Fast SSSE3 Cache64
x264 [info]: profile High, level 4.1
x264 [info]: frame I:1406 Avg QP:13.84 size:121798
x264 [info]: frame P:28512 Avg QP:16.91 size: 28175
x264 [info]: frame B:111048 Avg QP:19.29 size: 8025
x264 [info]: consecutive B-frames: 2.1% 1.5% 7.6% 11.4% 15.0% 52.2% 6.1% 2.0% 2.3%
x264 [info]: mb I I16..4: 5.7% 72.7% 21.6%
x264 [info]: mb P I16..4: 1.4% 7.1% 1.1% P16..4: 43.4% 24.0% 15.2% 0.0% 0.0% skip: 7.9%
x264 [info]: mb B I16..4: 0.1% 0.6% 0.1% B16..8: 41.8% 7.7% 1.7% direct: 4.4% skip:43.6% L0:45.1% L1:47.7% BI: 7.3%
x264 [info]: 8x8 transform intra:74.4% inter:62.1%
x264 [info]: coded y,uvDC,uvAC intra: 77.0% 85.3% 66.6% inter: 19.5% 24.1% 5.0%
x264 [info]: i16 v,h,dc,p: 40% 14% 6% 39%
x264 [info]: i8 v,h,dc,ddl,ddr,vr,hd,vl,hu: 20% 14% 25% 5% 7% 8% 7% 7% 7%
x264 [info]: i4 v,h,dc,ddl,ddr,vr,hd,vl,hu: 25% 16% 13% 6% 9% 9% 8% 7% 6%
x264 [info]: i8c dc,h,v,p: 49% 20% 21% 11%
x264 [info]: Weighted P-Frames: Y:3.2% UV:2.2%
x264 [info]: ref P L0: 47.7% 9.2% 18.2% 7.3% 6.0% 4.6% 4.1% 2.6% 0.3% 0.0%
x264 [info]: ref B L0: 71.1% 13.5% 7.1% 3.6% 2.6% 1.5% 0.6%
x264 [info]: ref B L1: 90.9% 9.1%
x264 [info]: kb/s:2541.19
encoded 140966 frames, 2.40 fps, 2541.19 kb/s
GeneralComplete name : ...\Vojna_protiv_vsex_2016_KinoGadget.mp4Format : MPEG-4Format profile : Base MediaCodec ID : isom (isom)File size : 1.83 GiBDuration : 1 h 37 minOverall bit rate mode : VariableOverall bit rate : 2 677 kb/sMovie name : Война против всех | KinoGadgetPerformer : Джон Майкл МакДонаDirector : Джон Майкл МакДонаActor : Александр Скарсгард / Тесса Томпсон / Тео Джеймс / Стефани Сигман / Малкольм Баррет / Майкл Пенья / Тейт Флетчер / Калеб Лэндри Джонс / Пол Райзер / Кит ДжардинScreenplay by : Джон Майкл МакДонаProducer : Крис Кларк / Флора Фернандес-Маренго / Фил ХантGenre : Comedy, CrimeContentType : Short FilmRecorded date : 2016Encoded date : UTC 2017-03-17 06:11:40Tagged date : UTC 2017-03-17 06:33:33Cover : YesContentRating : mpaa|R|400|LongDescription : Двое коррумпированных копов-отморозков из Нью-Мексико прессуют всех, кто попадается им под руку… или под колеса авто. Судьба подкидывает им шанс срубить целый миллион долларов, но на смачный куш также претендует эксцентричный английский лорд не без странных пристрастий. В борьбе за заслуженный улов напарники случайно узнают о стрёмных секретах красавчика-лорда и впрягаются нести возмездие. Плохим копам не терпится попробовать нечто совсем новое — борьбу за справедливость… ну, за то, как они понимают справедливость.HDVideo : Yes

VideoID : 1Format : AVCFormat/Info : Advanced Video CodecFormat profile : [email protected] settings, CABAC : YesFormat settings, ReFrames : 8 framesCodec ID : avc1Codec ID/Info : Advanced Video CodingDuration : 1 h 37 minBit rate : 2 541 kb/sMaximum bit rate : 14.0 Mb/sWidth : 1 280 pixelsHeight : 536 pixelsDisplay aspect ratio : 2.40:1Frame rate mode : ConstantFrame rate : 24.000 FPSColor space : YUVChroma subsampling : 4:2:0Bit depth : 8 bitsScan type : ProgressiveBits/(Pixel*Frame) : 0.154Stream size : 1.74 GiB (95%)Writing library : x264 core 148 r2638 7599210Encoding settings : cabac=1 / ref=8 / deblock=1:-2:-1 / analyse=0x3:0x113 / me=umh / subme=7 / psy=1 / psy_rd=1.00:0.00 / mixed_ref=1 / me_range=32 / chroma_me=1 / trellis=2 / 8x8dct=1 / cqm=0 / deadzone=21,11 / fast_pskip=0 / chroma_qp_offset=-2 / threads=3 / lookahead_threads=1 / sliced_threads=0 / nr=0 / decimate=1 / interlaced=0 / bluray_compat=0 / constrained_intra=0 / bframes=8 / b_pyramid=2 / b_adapt=2 / b_bias=0 / direct=1 / weightb=1 / open_gop=0 / weightp=2 / keyint=250 / keyint_min=25 / scenecut=40 / intra_refresh=0 / rc_lookahead=60 / rc=crf / mbtree=1 / crf=17.5 / qcomp=0.60 / qpmin=0 / qpmax=69 / qpstep=4 / vbv_maxrate=62500 / vbv_bufsize=78125 / crf_max=0.0 / nal_hrd=none / filler=0 / ip_ratio=1.40 / aq=1:1.00Encoded date : UTC 2017-03-17 00:48:07Tagged date : UTC 2017-03-17 06:12:10

AudioID : 2Format : AACFormat/Info : Advanced Audio CodecFormat profile : LCCodec ID : 40Duration : 1 h 37 minBit rate mode : VariableBit rate : 128 kb/sMaximum bit rate : 135 kb/sChannel(s) : 2 channelsChannel positions : Front: L RSampling rate : 48.0 kHzFrame rate : 46.875 FPS (1024 spf)Compression mode : LossyStream size : 89.6 MiB (5%)Title : Dub [License]Language : RussianEncoded date : UTC 2017-03-17 00:51:29Tagged date : UTC 2017-03-17 06:12:10

TextID : 3Format : Timed TextCodec ID : tx3gDuration : 1 h 16 minBit rate mode : VariableBit rate : 2 b/sStream size : 865 Bytes (0%)Title : ForcedLanguage : RussianForced : NoEncoded date : UTC 2017-03-17 06:12:10Tagged date : UTC 2017-03-17 06:12:10

Menu00:00:00.000 : (01)00:00:00:00000:09:14.875 : (02)00:09:14:87500:16:29.457 : (03)00:16:29:45700:29:19.875 : (04)00:29:19:87500:38:06.083 : (05)00:38:06:08300:46:43.875 : (06)00:46:43:87500:55:52.458 : (07)00:55:52:45801:03:24.458 : (08)01:03:24:45801:12:57.457 : (09)01:12:57:45701:19:10.457 : (10)01:19:10:45701:25:15.457 : (11)01:25:15:45701:31:57.457 : (12)01:31:57:457


Трекер:  [ 17-Мар-2017 09:30 ]

  

Скачать .torrent

Размер .torrent файла 18 KB


Размер: 1.83 GB
Хэш (hash) релиза: dc98e2c22d6fff038ff42a1db91164c35682936f

Еще никто не оставлял запись к записи скачать торрент [VIDEO] Война против всех War on Everyone . Будь первым!

!Обратная связь