BrainDead | Stina Ekblad | Cell Biology

Скачать через торрент [VIDEO] Я всё еще знаю, что вы сделали прошлым летом I Still Know What You Did Last Summer бесплатно русская версия torrent активатор

Статистика раздачи
Размер:  1.99 GB   |    Зарегистрирован:  1 год 4 месяца   |    .torrent скачан:  30 раз   |   
Раздают:  1  
   
загрузка...
 
Автор Сообщение

Galfimbul

avatar Galfimbul


Я всё еще знаю, что вы сделали прошлым летом / I Still Know What You Did Last Summer
«Ещё одно лето в аду»
Год выпуска: 1998
Оригинальное название: I Still Know What You Did Last Summer
Страна: США
Жанр: ужасы, детектив
Возраст: 16+

Режиссер: Дэнни Кэннон / Danny Cannon

В ролях: Дженнифер Лав Хьюитт, Фредди Принц мл., Брэнди Норвуд, Мехи Файфер, Мьюз Уотсон, Билл Коббс, Мэттью Сеттл, Джеффри Комбс, Дженнифер Эспозито, Джон Хоукс, Бенжамин Браун, Ред Уэст, Майкл П. Бирн, Майкл Брайан Френч, Джон Харингтон Блэнд, Марк Бун Джуниор, Дэн Прист, Сильвия Шорт, Джек Блэк, Брайан Кевин Коул, Лиза Хувер, Саммер Мур

Описание: Джули Джеймс так и не смогла пережить ужас прошлого лета. Хотя жестокий маньяк был убит, его тело не было найдено. Тень мрачного мстителя продолжает преследовать девушку в кошмарных видениях. Чтобы избавиться от страшных воспоминаний, Джули с друзьями отправляется на живописный тропический остров. Они надеются провести здесь несколько прекрасных дней, но…

Райский уголок оказывается настоящим адом. Надвигается шторм, и последний катер с туристами уже отчалил от берега. Опустевшая сцена готова для кровавого спектакля. За туманной пеленой дождя Джули снова увидела зловещую фигуру того, кто ВСЕ ЕЩЕ ЗНАЕТ, ЧТО ОНА СДЕЛАЛА ПРОШЛЫМ ЛЕТОМ.

Продолжительность: 01:40:34
Перевод: Дублированный
Оригинальная дорожка: нет

Автор рипа:

Качество видео: BDRip Исходник: Blu-Ray (1080p) Формат: mp4
Видео кодек: MPEG-4 AVC Аудио кодек: AAC
Видео: 1280x534 (2.40:1) at 23.976 fps, AVC at 2 694 kbps avg, 0.164 bit/pixel
Аудио №1 Rus: 48.0 KHz, AAC, 2 ch, 128.0 Kbps
Субтитры: нет
Навигация по главам: нет
Размер: 1.99 GiB
avs [info]: 1280x534p 1:1 @ 24000/1001 fps (cfr)
x264 [info]: using SAR=1/1
x264 [info]: using cpu capabilities: MMX2 SSE2Fast SSSE3 Cache64
x264 [info]: profile High, level 4.1
x264 [info]: frame I:1224 Avg QP:14.58 size: 78408
x264 [info]: frame P:32092 Avg QP:17.89 size: 24522
x264 [info]: frame B:111356 Avg QP:19.42 size: 10320
x264 [info]: consecutive B-frames: 3.0% 2.6% 7.0% 17.6% 16.2% 46.8% 6.9%
x264 [info]: mb I I16..4: 7.3% 80.5% 12.2%
x264 [info]: mb P I16..4: 2.6% 13.1% 1.3% P16..4: 42.6% 20.5% 12.4% 0.0% 0.0% skip: 7.5%
x264 [info]: mb B I16..4: 0.2% 1.2% 0.1% B16..8: 42.7% 9.6% 1.8% direct: 8.0% skip:36.4% L0:44.6% L1:48.3% BI: 7.1%
x264 [info]: 8x8 transform intra:78.2% inter:75.5%
x264 [info]: coded y,uvDC,uvAC intra: 69.6% 89.3% 74.6% inter: 25.4% 38.1% 10.5%
x264 [info]: i16 v,h,dc,p: 37% 13% 7% 44%
x264 [info]: i8 v,h,dc,ddl,ddr,vr,hd,vl,hu: 24% 12% 20% 5% 8% 9% 7% 8% 7%
x264 [info]: i4 v,h,dc,ddl,ddr,vr,hd,vl,hu: 30% 15% 16% 5% 9% 9% 7% 6% 4%
x264 [info]: i8c dc,h,v,p: 54% 15% 20% 11%
x264 [info]: Weighted P-Frames: Y:8.4% UV:5.9%
x264 [info]: ref P L0: 43.8% 8.8% 17.6% 7.3% 5.8% 4.2% 3.7% 2.1% 1.9% 1.6% 1.5% 1.4% 0.3% 0.0%
x264 [info]: ref B L0: 70.9% 12.2% 6.1% 3.0% 2.2% 1.8% 1.4% 0.9% 0.7% 0.5% 0.2%
x264 [info]: ref B L1: 91.3% 8.7%
x264 [info]: kb/s:2694.20
encoded 144672 frames, 2.02 fps, 2694.20 kb/s
GeneralComplete name : ...\Ya_vsyo_eshhe_znayu_chto_vy_sdelali_proshlym_letom_1998_KinoGadget.mp4Format : MPEG-4Format profile : Base MediaCodec ID : isom (isom/avc1/iso6)File size : 1.99 GiBDuration : 1 h 40 minOverall bit rate mode : VariableOverall bit rate : 2 830 kb/sMovie name : Я всё еще знаю, что вы сделали прошлым летом | KinoGadgetPerformer : Дэнни КэннонDirector : Дэнни КэннонActor : Дженнифер Лав Хьюитт / Фредди Принц мл. / Брэнди Норвуд / Мехи Файфер / Мьюз Уотсон / Билл Коббс / Мэттью Сеттл / Джеффри Комбс / Дженнифер Эспозито / Джон Хоукс / Бенжамин Браун / Ред Уэст / Майкл П. Бирн / Майкл Брайан Френч / Джон Харингтон Блэнд / Марк Бун Джуниор / Дэн ПристScreenplay by : Трей Колэуэй / Лоис ДунканProducer : Уильям С. Бисли / Стоукли Чаффин / Эрик ФейгGenre : Horror, MysteryContentType : Short FilmRecorded date : 1998Encoded date : UTC 2017-03-16 04:35:19Tagged date : UTC 2017-03-16 05:46:55Cover : YesContentRating : mpaa|R|400|LongDescription : Джули Джеймс так и не смогла пережить ужас прошлого лета. Хотя жестокий маньяк был убит, его тело не было найдено. Тень мрачного мстителя продолжает преследовать девушку в кошмарных видениях. Чтобы избавиться от страшных воспоминаний, Джули с друзьями отправляется на живописный тропический остров. Они надеются провести здесь несколько прекрасных дней, но…HDVideo : Yes

VideoID : 1Format : AVCFormat/Info : Advanced Video CodecFormat profile : [email protected] settings, CABAC : YesFormat settings, ReFrames : 12 framesCodec ID : avc1Codec ID/Info : Advanced Video CodingDuration : 1 h 40 minBit rate : 2 694 kb/sMaximum bit rate : 10.9 Mb/sWidth : 1 280 pixelsHeight : 534 pixelsDisplay aspect ratio : 2.40:1Frame rate mode : ConstantFrame rate : 23.976 (24000/1001) FPSColor space : YUVChroma subsampling : 4:2:0Bit depth : 8 bitsScan type : ProgressiveBits/(Pixel*Frame) : 0.164Stream size : 1.89 GiB (95%)Writing library : x264 core 148 r2638 7599210Encoding settings : cabac=1 / ref=12 / deblock=1:-2:-1 / analyse=0x3:0x113 / me=umh / subme=7 / psy=1 / psy_rd=1.00:0.00 / mixed_ref=1 / me_range=32 / chroma_me=1 / trellis=2 / 8x8dct=1 / cqm=0 / deadzone=21,11 / fast_pskip=0 / chroma_qp_offset=-2 / threads=3 / lookahead_threads=1 / sliced_threads=0 / nr=0 / decimate=1 / interlaced=0 / bluray_compat=0 / constrained_intra=0 / bframes=6 / b_pyramid=2 / b_adapt=2 / b_bias=0 / direct=1 / weightb=1 / open_gop=0 / weightp=2 / keyint=250 / keyint_min=25 / scenecut=40 / intra_refresh=0 / rc_lookahead=60 / rc=crf / mbtree=1 / crf=18.0 / qcomp=0.60 / qpmin=0 / qpmax=69 / qpstep=4 / vbv_maxrate=62500 / vbv_bufsize=78125 / crf_max=0.0 / nal_hrd=none / filler=0 / ip_ratio=1.40 / aq=1:1.00Encoded date : UTC 2017-03-16 04:35:19Tagged date : UTC 2017-03-16 04:36:41

AudioID : 2Format : AACFormat/Info : Advanced Audio CodecFormat profile : LCCodec ID : 40Duration : 1 h 40 minBit rate mode : VariableBit rate : 128 kb/sMaximum bit rate : 135 kb/sChannel(s) : 2 channelsChannel positions : Front: L RSampling rate : 48.0 kHzFrame rate : 46.875 FPS (1024 spf)Compression mode : LossyStream size : 92.1 MiB (5%)Title : DubLanguage : RussianEncoded date : UTC 2017-03-15 08:28:57Tagged date : UTC 2017-03-16 04:36:41


Трекер:  [ 16-Мар-2017 08:30 ]

  

Скачать .torrent

Размер .torrent файла 20 KB


Размер: 1.99 GB
Хэш (hash) релиза: 26dda1da554503dd96224909eec1745419641894

Еще никто не оставлял запись к записи скачать торрент [VIDEO] Я всё еще знаю, что вы сделали прошлым летом I Still Know What You Did Last Summer . Будь первым!

!Обратная связь