(2T) A Bone to Pick by Harris Charlaine | Crash Bandicoot N.Sane Trilogy | Exploitation" Films of the 70s, 80s, and Beyond

Скачать через торрент [VIDEO] Крутые меры Bastille Day бесплатно русская версия torrent активатор

Статистика раздачи
Размер:  1.78 GB   |    Зарегистрирован:  1 год 4 месяца   |    .torrent скачан:  30 раз   |   
Раздают:  1  
   
загрузка...
 
Автор Сообщение

Galfimbul

avatar Galfimbul


Крутые меры / Bastille Day
«Напарников не выбирают»
Премьера: 20 апреля 2016
Оригинальное название: Bastille Day
Страна: Великобритания, Франция, США
Жанр: боевик, триллер, драма
Возраст: 18+

Режиссер: Джеймс Уоткинс / James Watkins

В ролях: Идрис Эльба, Ричард Мэдден, Келли Райлли, Шарлотта Ле Бон, Анатол Юсеф, Хорхе Леон Мартинес, Карл Фаррер, Хосе Гарсиа, Александр Купер, Эрик Эбони

Описание: Ловкий карманник Майкл Мэйсон привлекает внимание полиции и спецслужб, когда крадет сумку, содержащую гораздо больше, чем просто бумажник. На его след выходит дерзкий и резкий спецагент ЦРУ Шон Брайар. Вдвоем они становятся мишенью тайной преступной организации и в течение суток должны вывести злоумышленников на чистую воду.

Продолжительность: 01:31:48
Перевод: Дублированный [Лицензия]
Оригинальная дорожка: нет

Автор рипа:

Качество видео: BDRip Исходник: Blu-Ray Remux (1080p) Формат: mp4
Видео кодек: MPEG-4 AVC Аудио кодек: AAC
Видео: 1280x536 (2.40:1) at 24.000 fps, AVC at 2 641 kbps avg, 0.160 bit/pixel
Аудио №1 Rus: 48.0 KHz, AAC, 2 ch, 128.0 Kbps
Субтитры: нет
Навигация по главам: нет
Размер: 1.78 GiB
avs [info]: 1280x536p 1:1 @ 24/1 fps (cfr)
x264 [info]: using SAR=1/1
x264 [info]: using cpu capabilities: MMX2 SSE2Fast SSSE3 Cache64
x264 [info]: profile High, level 4.1
x264 [info]: frame I:1691 Avg QP:14.56 size: 95783
x264 [info]: frame P:30803 Avg QP:18.31 size: 28216
x264 [info]: frame B:99710 Avg QP:20.80 size: 7899
x264 [info]: consecutive B-frames: 3.4% 4.0% 8.6% 26.2% 18.0% 27.2% 6.6% 2.2% 3.9%
x264 [info]: mb I I16..4: 6.4% 69.8% 23.8%
x264 [info]: mb P I16..4: 2.7% 15.2% 2.3% P16..4: 40.0% 21.7% 11.5% 0.0% 0.0% skip: 6.5%
x264 [info]: mb B I16..4: 0.3% 1.2% 0.3% B16..8: 40.1% 8.3% 1.8% direct: 4.9% skip:43.1% L0:42.6% L1:47.2% BI:10.2%
x264 [info]: 8x8 transform intra:73.3% inter:66.5%
x264 [info]: coded y,uvDC,uvAC intra: 71.9% 76.1% 45.6% inter: 19.6% 20.5% 3.2%
x264 [info]: i16 v,h,dc,p: 31% 22% 6% 40%
x264 [info]: i8 v,h,dc,ddl,ddr,vr,hd,vl,hu: 23% 17% 17% 5% 7% 8% 8% 7% 7%
x264 [info]: i4 v,h,dc,ddl,ddr,vr,hd,vl,hu: 27% 18% 11% 5% 10% 9% 8% 6% 5%
x264 [info]: i8c dc,h,v,p: 47% 21% 23% 9%
x264 [info]: Weighted P-Frames: Y:3.3% UV:1.5%
x264 [info]: ref P L0: 52.2% 11.8% 14.8% 6.6% 4.8% 4.0% 3.0% 2.4% 0.3% 0.0%
x264 [info]: ref B L0: 80.2% 9.3% 4.7% 2.5% 1.9% 1.0% 0.4%
x264 [info]: ref B L1: 93.7% 6.3%
x264 [info]: kb/s:2641.28
encoded 132204 frames, 3.13 fps, 2641.28 kb/s
GeneralFormat : MPEG-4Format profile : Base MediaCodec ID : isom (isom/avc1/iso6)File size : 1.78 GiBDuration : 1 h 31 minOverall bit rate mode : VariableOverall bit rate : 2 777 kb/sMovie name : Крутые меры | KinoGadgetPerformer : Джеймс УоткинсDirector : Джеймс УоткинсActor : Идрис Эльба / Ричард Мэдден / Келли Райлли / Шарлотта Ле Бон / Анатол Юсеф / Хорхе Леон Мартинес / Карл Фаррер / Хосе Гарсиа / Александр Купер / Эрик ЭбониScreenplay by : Эндрю Болдуин / Джеймс УоткинсProducer : Бард Доррос / Фабрис Джанферми / Стив ГолинGenre : Action, Drama, ThrillerContentType : Short FilmRecorded date : 2016Encoded date : UTC 2017-03-15 04:12:03Tagged date : UTC 2017-03-15 06:20:06Cover : YesContentRating : mpaa|R|400|LongDescription : Ловкий карманник Майкл Мэйсон привлекает внимание полиции и спецслужб, когда крадет сумку, содержащую гораздо больше, чем просто бумажник. На его след выходит дерзкий и резкий спецагент ЦРУ Шон Брайар. Вдвоем они становятся мишенью тайной преступной организации и в течение суток должны вывести злоумышленников на чистую воду.HDVideo : Yes

VideoID : 1Format : AVCFormat/Info : Advanced Video CodecFormat profile : [email protected] settings, CABAC : YesFormat settings, ReFrames : 8 framesCodec ID : avc1Codec ID/Info : Advanced Video CodingDuration : 1 h 31 minBit rate : 2 641 kb/sMaximum bit rate : 12.4 Mb/sWidth : 1 280 pixelsHeight : 536 pixelsDisplay aspect ratio : 2.40:1Frame rate mode : ConstantFrame rate : 24.000 FPSColor space : YUVChroma subsampling : 4:2:0Bit depth : 8 bitsScan type : ProgressiveBits/(Pixel*Frame) : 0.160Stream size : 1.69 GiB (95%)Writing library : x264 core 148 r2638 7599210Encoding settings : cabac=1 / ref=8 / deblock=1:-2:-1 / analyse=0x3:0x113 / me=umh / subme=7 / psy=1 / psy_rd=1.00:0.00 / mixed_ref=1 / me_range=32 / chroma_me=1 / trellis=2 / 8x8dct=1 / cqm=0 / deadzone=21,11 / fast_pskip=0 / chroma_qp_offset=-2 / threads=3 / lookahead_threads=1 / sliced_threads=0 / nr=0 / decimate=1 / interlaced=0 / bluray_compat=0 / constrained_intra=0 / bframes=8 / b_pyramid=2 / b_adapt=2 / b_bias=0 / direct=1 / weightb=1 / open_gop=0 / weightp=2 / keyint=250 / keyint_min=25 / scenecut=40 / intra_refresh=0 / rc_lookahead=60 / rc=crf / mbtree=1 / crf=18.0 / qcomp=0.60 / qpmin=0 / qpmax=69 / qpstep=4 / vbv_maxrate=62500 / vbv_bufsize=78125 / crf_max=0.0 / nal_hrd=none / filler=0 / ip_ratio=1.40 / aq=1:1.00Encoded date : UTC 2017-03-15 04:12:03Tagged date : UTC 2017-03-15 04:13:10

AudioID : 2Format : AACFormat/Info : Advanced Audio CodecFormat profile : LCCodec ID : 40Duration : 1 h 31 minBit rate mode : VariableBit rate : 128 kb/sMaximum bit rate : 135 kb/sChannel(s) : 2 channelsChannel positions : Front: L RSampling rate : 48.0 kHzFrame rate : 46.875 FPS (1024 spf)Compression mode : LossyStream size : 84.1 MiB (5%)Title : Dub [License]Language : RussianEncoded date : UTC 2017-03-14 16:21:46Tagged date : UTC 2017-03-15 04:13:10


Трекер:  [ 15-Мар-2017 09:00 ]

  

Скачать .torrent

Размер .torrent файла 18 KB


Размер: 1.78 GB
Хэш (hash) релиза: a3dab99ba93dc3a14893e8429c18a8f10292d082

Еще никто не оставлял запись к записи скачать торрент [VIDEO] Крутые меры Bastille Day . Будь первым!

!Обратная связь