Verdad o reto | Homes Under the Hammer S21E51 720p HDTV x264-NORiTE [eztv] | Mr. Kн@и

Скачать через торрент [VIDEO] Тихая гавань Safe Haven бесплатно русская версия torrent активатор

Статистика раздачи
Размер:  2.15 GB   |    Зарегистрирован:  1 год 4 месяца   |    .torrent скачан:  28 раз   |   
Раздают:  1  
   
загрузка...
 
Автор Сообщение

Galfimbul

avatar Galfimbul


Тихая гавань / Safe Haven
«Важно не то, от чего ты бежишь, а то, к чему ты приходишь»
Дата выхода: 13 февраля 2013
Оригинальное название: Safe Haven
Страна: США
Жанр: триллер, драма, мелодрама
Возраст: 12+

Режиссер: Лассе Халльстрём / Lasse Hallström

В ролях: Джош Дюамель, Джулианна Хаф, Коби Смолдерс, Дэвид Лайонс, Ирен Циглер, Джон Кохлер, Тим Парати, Джулия Пагано, Хуан Пьедраита, Ред Уэст

Описание: Кэти много лет страдала от жестокости мужа. Потеряв надежду на спасение, она совершила отчаянный побег и обрела «тихую гавань» в маленьком спокойном южном городке. Но готова ли Кэти к новым отношениям? Способна ли вновь поверить мужчине, понять его и полюбить? Даже если речь идет о таком обаятельном человеке, как молодой вдовец Алекс Уитли.

Продолжительность: 01:55:38
Перевод: Дублированный [Blu-Ray]
Оригинальная дорожка: нет

Автор рипа:

Качество видео: BDRip Исходник: Blu-Ray Remux (1080p) Формат: mp4
Видео кодек: MPEG-4 AVC Аудио кодек: AAC
Видео: 1280x534 (2.40:1) at 23.976 fps, AVC at 2 526 kbps avg, 0.154 bit/pixel
Аудио №1 Rus: 48.0 KHz, AAC, 2 ch, 128.0 Kbps
Субтитры: нет
Навигация по главам: есть
Размер: 2.15 GiB
avs [info]: 1280x534p 1:1 @ 24000/1001 fps (cfr)
x264 [info]: using SAR=1/1
x264 [info]: using cpu capabilities: MMX2 SSE2Fast SSSE3 Cache64
x264 [info]: profile High, level 4.1
x264 [info]: frame I:1228 Avg QP:12.70 size:102200
x264 [info]: frame P:36083 Avg QP:16.07 size: 28292
x264 [info]: frame B:129057 Avg QP:17.69 size: 8091
x264 [info]: consecutive B-frames: 1.8% 2.2% 6.4% 31.5% 16.4% 26.9% 4.3% 4.4% 1.3% 4.0% 0.9%
x264 [info]: mb I I16..4: 6.0% 74.4% 19.6%
x264 [info]: mb P I16..4: 1.5% 10.0% 1.6% P16..4: 38.9% 27.5% 15.3% 0.0% 0.0% skip: 5.2%
x264 [info]: mb B I16..4: 0.1% 1.0% 0.1% B16..8: 39.8% 10.5% 2.3% direct: 4.8% skip:41.4% L0:43.2% L1:47.6% BI: 9.2%
x264 [info]: 8x8 transform intra:76.9% inter:62.7%
x264 [info]: coded y,uvDC,uvAC intra: 80.0% 86.1% 63.6% inter: 19.8% 18.8% 3.7%
x264 [info]: i16 v,h,dc,p: 35% 11% 4% 50%
x264 [info]: i8 v,h,dc,ddl,ddr,vr,hd,vl,hu: 25% 14% 17% 5% 8% 9% 7% 8% 7%
x264 [info]: i4 v,h,dc,ddl,ddr,vr,hd,vl,hu: 29% 16% 15% 5% 9% 9% 7% 6% 5%
x264 [info]: i8c dc,h,v,p: 46% 19% 24% 10%
x264 [info]: Weighted P-Frames: Y:3.7% UV:2.1%
x264 [info]: ref P L0: 50.3% 10.0% 14.7% 6.7% 4.8% 4.2% 3.2% 2.2% 1.8% 2.0% 0.2% 0.0%
x264 [info]: ref B L0: 77.1% 9.9% 5.1% 2.4% 1.8% 1.5% 1.3% 0.6% 0.3%
x264 [info]: ref B L1: 93.3% 6.7%
x264 [info]: kb/s:2525.60
encoded 166368 frames, 2.28 fps, 2525.60 kb/s
GeneralFormat : MPEG-4Format profile : Base MediaCodec ID : isom (isom/avc1/iso6)File size : 2.15 GiBDuration : 1 h 55 minOverall bit rate mode : VariableOverall bit rate : 2 661 kb/sMovie name : Тихая гавань | KinoGadgetPerformer : Лассе ХалльстрёмDirector : Лассе ХалльстрёмActor : Джош Дюамель / Джулианна Хаф / Коби Смолдерс / Дэвид Лайонс / Ирен Циглер / Джон Кохлер / Тим Парати / Джулия Пагано / Хуан Пьедраита / Ред УэстScreenplay by : Дэна Стивенс / Гейдж Лански / Николас СпарксProducer : Марти Бауэн / Вик Годфри / Райан КаванаGenre : Drama, Romance, ThrillerContentType : Short FilmRecorded date : 2013Encoded date : UTC 2017-03-14 11:43:23Tagged date : UTC 2017-03-15 06:01:56Cover : YesContentRating : mpaa|PG-13|300|LongDescription : Кэти много лет страдала от жестокости мужа. Потеряв надежду на спасение, она совершила отчаянный побег и обрела «тихую гавань» в маленьком спокойном южном городке. Но готова ли Кэти к новым отношениям? Способна ли вновь поверить мужчине, понять его и полюбить? Даже если речь идет о таком обаятельном человеке, как молодой вдовец Алекс Уитли.HDVideo : Yes

VideoID : 1Format : AVCFormat/Info : Advanced Video CodecFormat profile : [email protected] settings, CABAC : YesFormat settings, ReFrames : 10 framesCodec ID : avc1Codec ID/Info : Advanced Video CodingDuration : 1 h 55 minBit rate : 2 526 kb/sMaximum bit rate : 14.9 Mb/sWidth : 1 280 pixelsHeight : 534 pixelsDisplay aspect ratio : 2.40:1Frame rate mode : ConstantFrame rate : 23.976 (24000/1001) FPSColor space : YUVChroma subsampling : 4:2:0Bit depth : 8 bitsScan type : ProgressiveBits/(Pixel*Frame) : 0.154Stream size : 2.04 GiB (95%)Writing library : x264 core 148 r2638 7599210Encoding settings : cabac=1 / ref=10 / deblock=1:-2:-1 / analyse=0x3:0x113 / me=umh / subme=7 / psy=1 / psy_rd=1.00:0.00 / mixed_ref=1 / me_range=32 / chroma_me=1 / trellis=2 / 8x8dct=1 / cqm=0 / deadzone=21,11 / fast_pskip=0 / chroma_qp_offset=-2 / threads=3 / lookahead_threads=1 / sliced_threads=0 / nr=0 / decimate=1 / interlaced=0 / bluray_compat=0 / constrained_intra=0 / bframes=10 / b_pyramid=2 / b_adapt=2 / b_bias=0 / direct=1 / weightb=1 / open_gop=0 / weightp=2 / keyint=250 / keyint_min=25 / scenecut=40 / intra_refresh=0 / rc_lookahead=60 / rc=crf / mbtree=1 / crf=18.0 / qcomp=0.60 / qpmin=0 / qpmax=69 / qpstep=4 / vbv_maxrate=62500 / vbv_bufsize=78125 / crf_max=0.0 / nal_hrd=none / filler=0 / ip_ratio=1.40 / aq=1:1.50Encoded date : UTC 2017-03-14 11:43:23Tagged date : UTC 2017-03-14 11:44:39

AudioID : 2Format : AACFormat/Info : Advanced Audio CodecFormat profile : LCCodec ID : 40Duration : 1 h 55 minBit rate mode : VariableBit rate : 128 kb/sMaximum bit rate : 135 kb/sChannel(s) : 2 channelsChannel positions : Front: L RSampling rate : 48.0 kHzFrame rate : 46.875 FPS (1024 spf)Compression mode : LossyStream size : 106 MiB (5%)Title : DubLanguage : RussianEncoded date : UTC 2017-03-13 15:19:32Tagged date : UTC 2017-03-14 11:44:39

Menu


Трекер:  [ 15-Мар-2017 08:30 ]

  

Скачать .torrent

Размер .torrent файла 11 KB


Размер: 2.15 GB
Хэш (hash) релиза: b9e992c73bcd827dedfcc6a1ee9b4b7f947b3168

Еще никто не оставлял запись к записи скачать торрент [VIDEO] Тихая гавань Safe Haven . Будь первым!

!Обратная связь