Mayweather Vs McGregor. | Richard Dreyfuss | [HorribleSubs] Steins Gate 0 - 14 [1080p] mkv

Скачать через торрент [VIDEO] Странная парочка Вечная вражда бесплатно русская версия torrent активатор

Статистика раздачи
Размер:  442 MB   |    Зарегистрирован:  1 год 4 месяца   |    .torrent скачан:  27 раз   |   
Раздают:  1  
   
загрузка...
 
Автор Сообщение

Galfimbul

avatar Galfimbul


Странная парочка / Вечная вражда / Odd couple / The odd couple / Bo ming chan dao duo ming qiang

Год выпуска: 1979
Страна: Гонконг / Gar Bo Films Company
Жанр: боевые искусства, комедия
Продолжительность: 01:35:53
Перевод: Одноголосый (закадровый) Александр Буданов (Samodelkin pictures)
Cубтитры: нет
Режиссер: Лау Ка-Винг / Lau Ka-Wing
В ролях: Само Хунг, Лау Ка-Винг, Леун Ка-Ян, Карл Мака, Марс и другие .
Описание: Мастер меча и мастер копья на протяжение многих лет безрезультатно спорят, какое оружие лучше. В старости они понимают, что надо передавать своё искусство дальше, для продолжения спора и находят себе учеников, но в спор вмешивается давний враг обоих мастеров, в результате чего мастера погибают. И только объединив усилия ученики смогут отомстить за смерть наставников.
Кинопоиск
Качество: HDRip / рип с BDRip 720p
Формат: MP4
Видео кодек: XviD
Аудио кодек: AAC
Видео: 480x200 AR:2.40 509 kbps 23.976 fps
Аудио: [Русский] 2ch 48 kHz 128 kbps - [VO] Одноголосый (закадровый) Александр Буданов (Samodelkin pictures)
GeneralComplete name : D:\Torrents\The odd couple.1979.HDRip.XviD.480x.rip by Frost O.S.mp4Format : MPEG-4Format profile : Base MediaCodec ID : isom (isom/iso2)File size : 442 MiBDuration : 1 h 35 minOverall bit rate mode : VariableOverall bit rate : 645 kb/sMovie name : The odd couple 1979 HDRip XviD 480x rip by Frost O SDirector : Лау Ка-Винг / Lau Ka-WingActor : Само Хунг / Лау Ка-Винг / Леун Ка-Ян / Карл Мака / МарсGenre : ActionContentType : Short FilmEncoded date : UTC 2017-03-14 18:36:11Tagged date : UTC 2017-03-14 18:37:00Writing application : MkvToMp4 version: 0.224 (x64)Cover : YesComment : rip by Frost O.SLongDescription : Мастер меча и мастер копья на протяжение многих лет безрезультатно спорят, какое оружие лучше. В старости они понимают, что надо передавать своё искусство дальше, для продолжения спора и находят себе учеников, но в спор вмешивается давний враг обоих мастеров, в результате чего мастера погибают. И только объединив усилия ученики смогут отомстить за смерть наставников.

VideoID : 1Format : MPEG-4 VisualFormat profile : Advanced [email protected] settings, BVOP : YesFormat settings, QPel : YesFormat settings, GMC : No warppointsFormat settings, Matrix : CustomCodec ID : 20Duration : 1 h 35 minBit rate mode : VariableBit rate : 509 kb/sMaximum bit rate : 193 Mb/sWidth : 480 pixelsHeight : 200 pixelsDisplay aspect ratio : 2.40:1Frame rate mode : VariableFrame rate : 23.976 (23976/1000) FPSMinimum frame rate : 11.988 FPSMaximum frame rate : 23.976 FPSColor space : YUVChroma subsampling : 4:2:0Bit depth : 8 bitsScan type : ProgressiveCompression mode : LossyBits/(Pixel*Frame) : 0.221Stream size : 349 MiB (79%)Title : avi_GPAC0.5.2_DEV_rev248_g39d5978_masterWriting library : XviD 1.2.1 (UTC 2008-12-04)Language : EnglishTagged date : UTC 2017-03-14 18:36:29

AudioID : 2Format : AACFormat/Info : Advanced Audio CodecFormat profile : LCCodec ID : 40Duration : 1 h 35 minBit rate mode : VariableBit rate : 128 kb/sMaximum bit rate : 135 kb/sChannel(s) : 2 channelsChannel positions : Front: L RSampling rate : 48.0 kHzFrame rate : 46.875 FPS (1024 spf)Compression mode : LossyStream size : 87.8 MiB (20%)Title : VO_ Alexander Budanov _Samodelkin pictures_ / VO_ Alexander Budanov _Samodelkin pictures_Language : RussianDefault : YesAlternate group : 1Encoded date : UTC 2017-03-14 18:36:16Tagged date : UTC 2017-03-14 18:36:29


Трекер:  [ 14-Мар-2017 21:00 ]

  

Скачать .torrent

Размер .torrent файла 17 KB


Размер: 442 MB
Хэш (hash) релиза: c39ab0c90dc64efab68a965b3bc7e65a3d3eb9fa

Еще никто не оставлял запись к записи скачать торрент [VIDEO] Странная парочка Вечная вражда . Будь первым!

!Обратная связь