Logan (2017) Dublado e Dual Áudio 5.1 BluRay 720p | 1080p – Torrent Download | Kuch Toh Hai Tere Mere Darmiyaan | Watch Movie

Скачать через торрент [VIDEO] Странная парочка Вечная вражда бесплатно русская версия torrent активатор

Статистика раздачи
Размер:  1.34 GB   |    Зарегистрирован:  1 год 4 месяца   |    .torrent скачан:  21 раз   |   
Раздают:  1  
   
загрузка...
 
Автор Сообщение

Galfimbul

avatar Galfimbul


Странная парочка / Вечная вражда / Odd couple / The odd couple / Bo ming chan dao duo ming qiang

Год выпуска: 1979
Страна: Гонконг / Gar Bo Films Company
Жанр: боевые искусства, комедия
Продолжительность: 01:35:53
Перевод: Одноголосый (закадровый) Александр Буданов (Samodelkin pictures)
Оригинальная дорожка: Есть
Cубтитры: английские (полные)
Режиссер: Лау Ка-Винг / Lau Ka-Wing
В ролях: Само Хунг, Лау Ка-Винг, Леун Ка-Ян, Карл Мака, Марс и другие .
Описание: Мастер меча и мастер копья на протяжение многих лет безрезультатно спорят, какое оружие лучше. В старости они понимают, что надо передавать своё искусство дальше, для продолжения спора и находят себе учеников, но в спор вмешивается давний враг обоих мастеров, в результате чего мастера погибают. И только объединив усилия ученики смогут отомстить за смерть наставников.
Кинопоиск
Качество: HDRip / рип с BDRip 720p
Формат: MP4
Видео кодек: H.264
Аудио кодек: AAC
Видео: 960x408 AR:2.35 1740 kbps 23.976 fps
Аудио №1: [Russian] 2ch 48 kHz 128 kbps - [VO] Одноголосый (закадровый) Александр Буданов (Samodelkin pictures)
Аудио №2: [Chinese] 2ch 48 kHz 128 kbps - [Original] Китайский
avs [info]: 960x408p 1:1 @ 2997/125 fps (cfr)
x264 [info]: using SAR=1/1
x264 [info]: using cpu capabilities: MMX2 SSE2Fast SSSE3 SSE4.2 AVX FMA3 AVX2 LZCNT BMI2
x264 [info]: profile High, level 4.1

x264 [info]: frame I:1050 Avg QP:18.98 size: 45055
x264 [info]: frame P:37848 Avg QP:22.67 size: 16210
x264 [info]: frame B:99039 Avg QP:24.29 size: 5958
x264 [info]: consecutive B-frames: 4.9% 6.5% 15.6% 27.5% 17.2% 23.1% 3.6% 1.5%
x264 [info]: mb I I16..4: 4.3% 81.2% 14.5%
x264 [info]: mb P I16..4: 1.1% 15.0% 2.4% P16..4: 34.2% 35.3% 8.9% 0.0% 0.0% skip: 3.2%
x264 [info]: mb B I16..4: 0.1% 2.7% 0.4% B16..8: 36.5% 18.8% 2.9% direct: 4.3% skip:34.3% L0:43.0% L1:46.5% BI:10.5%
x264 [info]: 8x8 transform intra:81.5% inter:67.3%
x264 [info]: direct mvs spatial:98.9% temporal:1.1%
x264 [info]: coded y,uvDC,uvAC intra: 87.1% 78.5% 38.9% inter: 26.0% 21.2% 4.6%
x264 [info]: i16 v,h,dc,p: 21% 15% 5% 58%
x264 [info]: i8 v,h,dc,ddl,ddr,vr,hd,vl,hu: 10% 5% 4% 11% 16% 15% 15% 12% 12%
x264 [info]: i4 v,h,dc,ddl,ddr,vr,hd,vl,hu: 9% 5% 3% 9% 17% 16% 15% 12% 13%
x264 [info]: i8c dc,h,v,p: 32% 25% 21% 22%
x264 [info]: Weighted P-Frames: Y:11.5% UV:5.5%
x264 [info]: ref P L0: 49.7% 13.9% 15.4% 5.6% 4.6% 3.5% 3.2% 1.8% 2.0% 0.3% 0.0%
x264 [info]: ref B L0: 80.2% 8.8% 4.5% 2.2% 1.6% 1.4% 0.9% 0.3%
x264 [info]: ref B L1: 96.1% 3.9%
x264 [info]: kb/s:1739.46

encoded 137937 frames, 14.22 fps, 1739.46 kb/s
GeneralComplete name : D:\Torrents\The odd couple.1979.HDRip.x264.960x.rip by Frost O.S.mp4Format : MPEG-4Format profile : Base MediaCodec ID : isom (isom/avc1/iso2)File size : 1.34 GiBDuration : 1 h 35 minOverall bit rate mode : VariableOverall bit rate : 2 007 kb/sMovie name : The odd couple 1979 HDRip x264 960x rip by Frost O SDirector : Лау Ка-Винг / Lau Ka-WingActor : Само Хунг / Лау Ка-Винг / Леун Ка-Ян / Карл Мака / МарсGenre : ActionContentType : Short FilmEncoded date : UTC 2017-03-14 18:44:43Tagged date : UTC 2017-03-14 18:46:34Writing application : MkvToMp4 version: 0.224 (x64)Cover : YesComment : rip by Frost O.SLongDescription : Мастер меча и мастер копья на протяжение многих лет безрезультатно спорят, какое оружие лучше. В старости они понимают, что надо передавать своё искусство дальше, для продолжения спора и находят себе учеников, но в спор вмешивается давний враг обоих мастеров, в результате чего мастера погибают. И только объединив усилия ученики смогут отомстить за смерть наставников.

VideoID : 1Format : AVCFormat/Info : Advanced Video CodecFormat profile : [email protected] settings, CABAC : YesFormat settings, ReFrames : 9 framesCodec ID : avc1Codec ID/Info : Advanced Video CodingDuration : 1 h 35 minBit rate : 1 740 kb/sMaximum bit rate : 4 866 kb/sWidth : 960 pixelsHeight : 408 pixelsDisplay aspect ratio : 2.35:1Frame rate mode : ConstantFrame rate : 23.976 (24000/1001) FPSOriginal frame rate : 23.976 (23976/1000) FPSColor space : YUVChroma subsampling : 4:2:0Bit depth : 8 bitsScan type : ProgressiveBits/(Pixel*Frame) : 0.185Stream size : 1.17 GiB (87%)Writing library : x264 core 148 r2744 b97ae06Encoding settings : cabac=1 / ref=9 / deblock=1:-2:-2 / analyse=0x3:0x113 / me=umh / subme=11 / psy=1 / psy_rd=0.95:0.00 / mixed_ref=1 / me_range=32 / chroma_me=1 / trellis=2 / 8x8dct=1 / cqm=0 / deadzone=21,11 / fast_pskip=0 / chroma_qp_offset=-2 / threads=6 / lookahead_threads=1 / sliced_threads=0 / nr=0 / decimate=0 / interlaced=0 / bluray_compat=0 / constrained_intra=0 / bframes=7 / b_pyramid=2 / b_adapt=2 / b_bias=0 / direct=3 / weightb=1 / open_gop=0 / weightp=2 / keyint=250 / keyint_min=23 / scenecut=40 / intra_refresh=0 / rc=2pass / mbtree=0 / bitrate=1740 / ratetol=1.0 / qcomp=0.65 / qpmin=0 / qpmax=69 / qpstep=4 / cplxblur=20.0 / qblur=0.5 / ip_ratio=1.40 / pb_ratio=1.30 / aq=2:1.00Language : EnglishEncoded date : UTC 2017-03-14 18:44:43Tagged date : UTC 2017-03-14 18:45:22Color range : LimitedColor primaries : BT.709Transfer characteristics : BT.709Matrix coefficients : BT.709

Audio #1ID : 2Format : AACFormat/Info : Advanced Audio CodecFormat profile : LCCodec ID : 40Duration : 1 h 35 minBit rate mode : VariableBit rate : 128 kb/sMaximum bit rate : 135 kb/sChannel(s) : 2 channelsChannel positions : Front: L RSampling rate : 48.0 kHzFrame rate : 46.875 FPS (1024 spf)Compression mode : LossyStream size : 87.8 MiB (6%)Title : VO_ Alexander Budanov _Samodelkin pictures_ / VO_ Alexander Budanov _Samodelkin pictures_Language : RussianDefault : YesAlternate group : 1Encoded date : UTC 2017-03-14 18:45:12Tagged date : UTC 2017-03-14 18:45:22

Audio #2ID : 3Format : AACFormat/Info : Advanced Audio CodecFormat profile : LCCodec ID : 40Duration : 1 h 35 minBit rate mode : VariableBit rate : 128 kb/sMaximum bit rate : 135 kb/sChannel(s) : 2 channelsChannel positions : Front: L RSampling rate : 48.0 kHzFrame rate : 46.875 FPS (1024 spf)Compression mode : LossyStream size : 87.8 MiB (6%)Title : Original / OriginalLanguage : ChineseDefault : NoAlternate group : 1Encoded date : UTC 2017-03-14 18:45:14Tagged date : UTC 2017-03-14 18:45:22

TextID : 4Format : Timed TextMuxing mode : sbtlCodec ID : tx3gDuration : 1 h 35 minBit rate mode : VariableBit rate : 35 b/sStream size : 24.5 KiB (0%)Title : Full / FullLanguage : EnglishDefault : YesForced : NoAlternate group : 2Encoded date : UTC 2017-03-14 18:45:22Tagged date : UTC 2017-03-14 18:45:22


Трекер:  [ 14-Мар-2017 21:00 ]

  

Скачать .torrent

Размер .torrent файла 14 KB


Размер: 1.34 GB
Хэш (hash) релиза: 86bd998d0adfb224a4426d2e33f96e52149d588e

Еще никто не оставлял запись к записи скачать торрент [VIDEO] Странная парочка Вечная вражда . Будь первым!

!Обратная связь