Brad Pitt | El Ilusionista (Deception) HDTV | All Releases by S Pirate

Скачать через торрент [MULT] Карлик Нос бесплатно русская версия torrent активатор

Статистика раздачи
Размер:  528 MB   |    Зарегистрирован:  1 год 4 месяца   |    .torrent скачан:  22 раза   |   
Раздают:  1  
   
загрузка...
 
Автор Сообщение

Galfimbul

avatar Galfimbul


Карлик Нос

Год выпуска: 2003
Страна: Россия
Жанр: мультфильм, сказка
Продолжительность: 01:18:55
Перевод: не требуется
Cубтитры: нет
Режиссер: Илья Максимов
Роли озвучивали: Альберт Асадуллин, Евгения Игумнова, Наталья Данилова, Игорь Шибанов, Иван Краско, Татьяна Иванова, Виктор Сухоруков, Анатолий Петров, Алексей Гурьев, Елена Соловьева
Описание: В основу сюжета положена волшебная сказка Вильгельма Гауфа. Для того чтобы осуществить свои коварные планы, злой колдунье нужен ребенок с очень добрым сердцем. Обманом она заманивает к себе маленького Якоба — сына сапожника и зеленщицы.

Когда Якоб отказывается участвовать в ее сомнительных делах, ведьма превращает его в уродливого карлика. Но вечная сила любви и дружбы помогает героям сказки рассеять злые чары…
Релиз группы
Качество: DVDRip / рип с DVD5
Формат: MP4
Видео кодек: H.264
Аудио кодек: AAC
Видео: 598x360 AR:1.66 800 kbps 25 fps
Аудио : 2ch 48 kHz 128 kbps
avs [info]: 598x360p 1:1 @ 25/1 fps (cfr)
x264 [info]: using SAR=1/1
x264 [info]: using cpu capabilities: MMX2 SSE2Fast SSSE3 SSE4.2 AVX FMA3 AVX2 LZCNT BMI2
x264 [info]: profile High, level 4.1

x264 [info]: frame I:1735 Avg QP:15.27 size: 34080
x264 [info]: frame P:32132 Avg QP:19.48 size: 7376
x264 [info]: frame B:84510 Avg QP:20.09 size: 2099
x264 [info]: consecutive B-frames: 4.4% 4.9% 12.9% 46.5% 19.4% 9.0% 2.8%
x264 [info]: mb I I16..4: 6.0% 49.6% 44.4%
x264 [info]: mb P I16..4: 0.6% 3.2% 2.9% P16..4: 19.3% 17.2% 9.9% 3.8% 0.7% skip:42.3%
x264 [info]: mb B I16..4: 0.1% 0.3% 0.4% B16..8: 17.5% 8.6% 2.8% direct: 1.9% skip:68.6% L0:44.1% L1:45.1% BI:10.8%
x264 [info]: 8x8 transform intra:47.1% inter:28.2%
x264 [info]: direct mvs spatial:93.2% temporal:6.8%
x264 [info]: coded y,uvDC,uvAC intra: 70.9% 76.5% 62.7% inter: 10.1% 8.8% 5.6%
x264 [info]: i16 v,h,dc,p: 27% 33% 8% 32%
x264 [info]: i8 v,h,dc,ddl,ddr,vr,hd,vl,hu: 15% 14% 16% 8% 9% 9% 10% 9% 12%
x264 [info]: i4 v,h,dc,ddl,ddr,vr,hd,vl,hu: 16% 11% 12% 10% 11% 10% 10% 9% 11%
x264 [info]: i8c dc,h,v,p: 37% 34% 18% 11%
x264 [info]: Weighted P-Frames: Y:3.7% UV:2.6%
x264 [info]: ref P L0: 52.8% 5.8% 17.3% 7.8% 5.6% 4.4% 3.5% 2.5% 0.2% 0.0%
x264 [info]: ref B L0: 73.5% 11.4% 6.1% 3.4% 3.1% 1.6% 0.9%
x264 [info]: ref B L1: 95.4% 4.6%
x264 [info]: kb/s:799.94

encoded 118377 frames, 34.03 fps, 799.94 kb/s
GeneralComplete name : D:\Torrents\Карлик Нос.2003.DVDRip.x264.640x.rip by Frost O.S.mp4Format : MPEG-4Format profile : Base MediaCodec ID : isom (isom/avc1)File size : 528 MiBDuration : 1 h 18 minOverall bit rate mode : VariableOverall bit rate : 936 kb/sMovie name : Карлик Нос 2003 DVDRip x264 640x rip by Frost O SDirector : Илья МаксимовActor : Альберт Асадуллин / Евгения Игумнова / Наталья Данилова / Игорь Шибанов / Иван Краско / Татьяна Иванова / Виктор Сухоруков / Анатолий Петров / Алексей Гурьев / Елена СоловьеваGenre : AnimationContentType : Short FilmEncoded date : UTC 2017-03-14 12:09:32Tagged date : UTC 2017-03-14 12:10:10Writing application : MkvToMp4 version: 0.224 (x64)Cover : YesComment : rip by Frost O.SLongDescription : В основу сюжета положена волшебная сказка Вильгельма Гауфа. Для того чтобы осуществить свои коварные планы, злой колдунье нужен ребенок с очень добрым сердцем. Обманом она заманивает к себе маленького Якоба — сына сапожника и зеленщицы. / Когда Якоб отказывается участвовать в ее сомнительных делах, ведьма превращает его в уродливого карлика. Но вечная сила любви и дружбы помогает героям сказки рассеять злые чары…

VideoID : 1Format : AVCFormat/Info : Advanced Video CodecFormat profile : [email protected] settings, CABAC : YesFormat settings, ReFrames : 8 framesCodec ID : avc1Codec ID/Info : Advanced Video CodingDuration : 1 h 18 minBit rate : 800 kb/sMaximum bit rate : 3 379 kb/sWidth : 598 pixelsHeight : 360 pixelsDisplay aspect ratio : 5:3Frame rate mode : ConstantFrame rate : 25.000 FPSColor space : YUVChroma subsampling : 4:2:0Bit depth : 8 bitsScan type : ProgressiveBits/(Pixel*Frame) : 0.149Stream size : 452 MiB (85%)Writing library : x264 core 148 r2744 b97ae06Encoding settings : cabac=1 / ref=8 / deblock=1:-2:-2 / analyse=0x3:0x133 / me=umh / subme=11 / psy=1 / psy_rd=0.80:0.00 / mixed_ref=1 / me_range=48 / chroma_me=1 / trellis=2 / 8x8dct=1 / cqm=0 / deadzone=21,11 / fast_pskip=0 / chroma_qp_offset=-2 / threads=6 / lookahead_threads=1 / sliced_threads=0 / nr=0 / decimate=0 / interlaced=0 / bluray_compat=0 / constrained_intra=0 / bframes=6 / b_pyramid=2 / b_adapt=2 / b_bias=0 / direct=3 / weightb=1 / open_gop=0 / weightp=2 / keyint=250 / keyint_min=25 / scenecut=40 / intra_refresh=0 / rc=2pass / mbtree=0 / bitrate=800 / ratetol=1.0 / qcomp=0.65 / qpmin=0 / qpmax=69 / qpstep=4 / cplxblur=20.0 / qblur=0.5 / ip_ratio=1.40 / pb_ratio=1.30 / aq=2:1.00Language : EnglishEncoded date : UTC 2017-03-14 12:09:32Tagged date : UTC 2017-03-14 12:09:47Color range : LimitedColor primaries : BT.601 PALTransfer characteristics : BT.470 System B, BT.470 System GMatrix coefficients : BT.601

AudioID : 2Format : AACFormat/Info : Advanced Audio CodecFormat profile : LCCodec ID : 40Duration : 1 h 18 minBit rate mode : VariableBit rate : 128 kb/sMaximum bit rate : 135 kb/sChannel(s) : 2 channelsChannel positions : Front: L RSampling rate : 48.0 kHzFrame rate : 46.875 FPS (1024 spf)Compression mode : LossyStream size : 72.3 MiB (14%)Language : RussianDefault : YesAlternate group : 1Encoded date : UTC 2017-03-14 12:09:40Tagged date : UTC 2017-03-14 12:09:47


Трекер:  [ 14-Мар-2017 14:30 ]

  

Скачать .torrent

Размер .torrent файла 11 KB


Размер: 528 MB
Хэш (hash) релиза: b33e419e7fb5a3acdf30cdda00ca780f51432717

Еще никто не оставлял запись к записи скачать торрент [MULT] Карлик Нос . Будь первым!

!Обратная связь