Télécharger | 1x11 Gwitsongmal | тег Ангелы и Демоны

Скачать через торрент [VIDEO] Укол зонтиком Umbrella Coup бесплатно русская версия torrent активатор

Статистика раздачи
Размер:  436 MB   |    Зарегистрирован:  1 год 4 месяца   |    .torrent скачан:  24 раза   |   
Раздают:  1  
   
загрузка...
 
Автор Сообщение

Galfimbul

avatar Galfimbul


Укол зонтиком / Umbrella Coup / Le coup du parapluie

Год выпуска: 1980
Страна: Франция
Жанр: комедия
Продолжительность: 01:35:26
Перевод: Русский Профессиональный (полное дублирование) Советский дубляж
Cубтитры: нет
Режиссер: Жерар Ури / Gérard Oury
В ролях: Пьер Ришар, Валери Мересс, Кристин Мурийо, Гордон Митчелл, Жерар Жюньо, Морис Риш, Доминик Лаванан, Аксель Аббади, Ясин Хан, Дидье Совегран и другие .
Описание: Актёр Грегуар Леконт получает приглашение сняться в кино в роли киллера, он ошибается дверью и попадает к мафии которые дают ему задание убрать бандита по кличке «Кит» и снабжают его зонтиком с отравленной иглой. Грегуар приступает к работе не подозревая, что впутался в криминал. Тем временем настоящий убийца идет по его следу...
Релиз группы
Качество: HDRip / рип с BDRip 720p
Формат: MP4
Видео кодек: XviD
Аудио кодек: AAC
Видео: 480х288 AR:1.67 503 kbps 24.000 fps
Аудио: [Russian] 2ch 48 kHz 128 kbps - Профессиональный (полное дублирование) Советский дубляж
GeneralComplete name : D:\Torrents\Le coup du parapluie.1980.HDRip.XviD.480x.rip by Frost O.S.mp4Format : MPEG-4Format profile : Base MediaCodec ID : isom (isom/iso2)File size : 436 MiBDuration : 1 h 35 minOverall bit rate mode : VariableOverall bit rate : 639 kb/sMovie name : Le coup du parapluie 1980 HDRip XviD 480x rip by Frost O SDirector : Жерар Ури / Gérard OuryActor : Пьер Ришар / Валери Мересс / Кристин Мурийо / Гордон Митчелл / Жерар Жюньо / Морис Риш / Доминик Лаванан / Аксель Аббади / Ясин Хан / Дидье СовегранGenre : ComedyContentType : Short FilmEncoded date : UTC 2017-03-14 09:12:00Tagged date : UTC 2017-03-14 09:12:22Writing application : MkvToMp4 version: 0.224 (x64)Cover : YesComment : rip by Frost O.SLongDescription : Актёр Грегуар Леконт получает приглашение сняться в кино в роли киллера, он ошибается дверью и попадает к мафии которые дают ему задание убрать бандита по кличке «Кит» и снабжают его зонтиком с отравленной иглой. Грегуар приступает к работе не подозревая, что впутался в криминал. Тем временем настоящий убийца идет по его следу...

VideoID : 1Format : MPEG-4 VisualFormat profile : Advanced [email protected] settings, BVOP : YesFormat settings, QPel : NoFormat settings, GMC : No warppointsFormat settings, Matrix : CustomCodec ID : 20Duration : 1 h 35 minBit rate mode : VariableBit rate : 503 kb/sMaximum bit rate : 2 224 kb/sWidth : 480 pixelsHeight : 288 pixelsDisplay aspect ratio : 5:3Frame rate mode : VariableFrame rate : 24.000 FPSMinimum frame rate : 12.000 FPSMaximum frame rate : 24.000 FPSColor space : YUVChroma subsampling : 4:2:0Bit depth : 8 bitsScan type : ProgressiveCompression mode : LossyBits/(Pixel*Frame) : 0.152Stream size : 344 MiB (79%)Title : avi_GPAC0.5.2_DEV_rev248_g39d5978_masterWriting library : XviD 1.2.1 (UTC 2008-12-04)Language : EnglishTagged date : UTC 2017-03-14 09:12:07

AudioID : 2Format : AACFormat/Info : Advanced Audio CodecFormat profile : LCCodec ID : 40Duration : 1 h 35 minBit rate mode : VariableBit rate : 128 kb/sMaximum bit rate : 135 kb/sChannel(s) : 2 channelsChannel positions : Front: L RSampling rate : 48.0 kHzFrame rate : 46.875 FPS (1024 spf)Compression mode : LossyStream size : 87.4 MiB (20%)Title : Dub_ _Sovetskiy_dublyazh_ / Dub_ _Sovetskiy_dublyazh_Language : RussianDefault : YesAlternate group : 1Encoded date : UTC 2017-03-14 09:12:06Tagged date : UTC 2017-03-14 09:12:07


Трекер:  [ 14-Мар-2017 11:30 ]

  

Скачать .torrent

Размер .torrent файла 17 KB


Размер: 436 MB
Хэш (hash) релиза: 13eae860bbd43c30f9e25896997d1763bfd49b70

Торренты, похожие на [VIDEO] Укол зонтиком Umbrella Coup скачать торрент

Форум Название Автор Размер S L Добавлен
Видео (Фильмы/Клипы) ·· [VIDEO] Укол зонтиком / Umbrella Coup / Le coup du parapluie (Жерар Ури / Gérard Oury) [1980, комедия, BDRip] [MP4, 960x] Dub (Rus, Ukr), DVO HTB+, DVO 2+2, DVO K1, Original, Sub (rus, eng, fre) Galfimbul 18821385311.75 GB 0 0 1489482800

12:13

14-Мар-17

Еще никто не оставлял запись к записи скачать торрент [VIDEO] Укол зонтиком Umbrella Coup . Будь первым!

!Обратная связь