Brad Peyton | 서울 밤도깨비 야시장 30가지 한방에 정리한다 | Les Cigares du Pharaon

Скачать через торрент [VIDEO] Укол зонтиком Umbrella Coup бесплатно русская версия torrent активатор

Статистика раздачи
Размер:  1.75 GB   |    Зарегистрирован:  1 год 4 месяца   |    .torrent скачан:  29 раз   |   
Раздают:  1  
   
загрузка...
 
Автор Сообщение

Galfimbul

avatar Galfimbul


Укол зонтиком / Umbrella Coup / Le coup du parapluie

Год выпуска: 1980
Страна: Франция
Жанр: комедия
Продолжительность: 01:35:26
Перевод №1: Русский Профессиональный (полное дублирование) Советский дубляж
Перевод №2: Украинский Профессиональный (полное дублирование) СТБ
Перевод №3: Русский Профессиональный (двухголосый, закадровый) НТВ+
Перевод №4: Украинский Профессиональный (двухголосый, закадровый) 2+2
Перевод №5: Украинский Профессиональный (двухголосый, закадровый) К1
Оригинальная дорожка: Есть
Cубтитры: русские (полные), английские (полные), французские (полные)
Режиссер: Жерар Ури / Gérard Oury
В ролях: Пьер Ришар, Валери Мересс, Кристин Мурийо, Гордон Митчелл, Жерар Жюньо, Морис Риш, Доминик Лаванан, Аксель Аббади, Ясин Хан, Дидье Совегран и другие .
Описание: Актёр Грегуар Леконт получает приглашение сняться в кино в роли киллера, он ошибается дверью и попадает к мафии которые дают ему задание убрать бандита по кличке «Кит» и снабжают его зонтиком с отравленной иглой. Грегуар приступает к работе не подозревая, что впутался в криминал. Тем временем настоящий убийца идет по его следу...
Релиз группы
Качество: BDRip / рип с BDRemux 1080p
Формат: MP4
Видео кодек: H.264
Аудио кодек: AAC
Видео: 902х540 AR:1.67 1840 kbps 24.000 fps
Аудио №1: [Russian] 2ch 48 kHz 128 kbps - Профессиональный (полное дублирование) Советский дубляж
Аудио №2: [Ukrainian] 2ch 48 kHz 128 kbps - Профессиональный (полное дублирование) СТБ
Аудио №3: [Russian] 2ch 48 kHz 128 kbps - Профессиональный (двухголосый, закадровый) НТВ+
Аудио №4: [Ukrainian] 2ch 48 kHz 128 kbps - Профессиональный (двухголосый, закадровый) 2+2
Аудио №5: [Ukrainian] 2ch 48 kHz 128 kbps - Профессиональный (двухголосый, закадровый) K1
Аудио №6: [French] 2ch 48 kHz 128 kbps - Оригинал
avs [info]: 902x540p 1:1 @ 24/1 fps (cfr)
x264 [info]: using SAR=1/1
x264 [info]: using cpu capabilities: MMX2 SSE2Fast SSSE3 SSE4.2 AVX FMA3 AVX2 LZCNT BMI2
x264 [info]: profile High, level 4.1

x264 [info]: frame I:1050 Avg QP:21.64 size: 46740
x264 [info]: frame P:29926 Avg QP:23.32 size: 19482
x264 [info]: frame B:106448 Avg QP:25.42 size: 6431
x264 [info]: consecutive B-frames: 1.2% 1.4% 7.1% 31.8% 22.4% 30.0% 4.0% 2.1%
x264 [info]: mb I I16..4: 5.7% 75.9% 18.3%
x264 [info]: mb P I16..4: 0.4% 8.2% 1.6% P16..4: 34.8% 39.0% 9.6% 0.0% 0.0% skip: 6.5%
x264 [info]: mb B I16..4: 0.0% 1.0% 0.2% B16..8: 41.4% 17.9% 2.5% direct: 3.9% skip:33.0% L0:43.5% L1:48.5% BI: 7.9%
x264 [info]: 8x8 transform intra:79.8% inter:67.8%
x264 [info]: coded y,uvDC,uvAC intra: 91.3% 81.2% 43.6% inter: 24.2% 18.7% 0.8%
x264 [info]: i16 v,h,dc,p: 35% 22% 3% 40%
x264 [info]: i8 v,h,dc,ddl,ddr,vr,hd,vl,hu: 6% 7% 3% 11% 17% 16% 16% 12% 12%
x264 [info]: i4 v,h,dc,ddl,ddr,vr,hd,vl,hu: 10% 7% 2% 9% 16% 17% 15% 12% 12%
x264 [info]: i8c dc,h,v,p: 32% 25% 22% 22%
x264 [info]: Weighted P-Frames: Y:15.6% UV:10.4%
x264 [info]: ref P L0: 45.0% 13.7% 17.4% 6.3% 5.4% 3.9% 3.7% 2.0% 2.3% 0.4% 0.0%
x264 [info]: ref B L0: 83.0% 7.8% 3.7% 1.9% 1.4% 1.2% 0.8% 0.3%
x264 [info]: ref B L1: 96.8% 3.2%
x264 [info]: kb/s:1839.53

encoded 137424 frames, 10.34 fps, 1839.53 kb/s
GeneralComplete name : D:\Torrents\Le coup du parapluie.1980.BDRip.x264.960x.rip by Frost O.S.mp4Format : MPEG-4Format profile : Base MediaCodec ID : isom (isom/avc1/iso2)File size : 1.75 GiBDuration : 1 h 35 minOverall bit rate mode : VariableOverall bit rate : 2 630 kb/sMovie name : Le coup du parapluie 1980 BDRip x264 960x rip by Frost O SDirector : Жерар Ури / Gérard OuryActor : Пьер Ришар / Валери Мересс / Кристин Мурийо / Гордон Митчелл / Жерар Жюньо / Морис Риш / Доминик Лаванан / Аксель Аббади / Ясин Хан / Дидье СовегранGenre : ComedyContentType : Short FilmEncoded date : UTC 2017-03-14 08:59:39Tagged date : UTC 2017-03-14 09:02:27Writing application : MkvToMp4 version: 0.224 (x64)Cover : YesComment : rip by Frost O.SLongDescription : Актёр Грегуар Леконт получает приглашение сняться в кино в роли киллера, он ошибается дверью и попадает к мафии которые дают ему задание убрать бандита по кличке «Кит» и снабжают его зонтиком с отравленной иглой. Грегуар приступает к работе не подозревая, что впутался в криминал. Тем временем настоящий убийца идет по его следу...

VideoID : 1Format : AVCFormat/Info : Advanced Video CodecFormat profile : [email protected] settings, CABAC : YesFormat settings, ReFrames : 9 framesCodec ID : avc1Codec ID/Info : Advanced Video CodingDuration : 1 h 35 minBit rate : 1 840 kb/sMaximum bit rate : 7 483 kb/sWidth : 902 pixelsHeight : 540 pixelsDisplay aspect ratio : 5:3Frame rate mode : ConstantFrame rate : 24.000 FPSColor space : YUVChroma subsampling : 4:2:0Bit depth : 8 bitsScan type : ProgressiveBits/(Pixel*Frame) : 0.157Stream size : 1.23 GiB (70%)Writing library : x264 core 148 r2744 b97ae06Encoding settings : cabac=1 / ref=9 / deblock=1:-2:-1 / analyse=0x3:0x113 / me=umh / subme=11 / psy=1 / psy_rd=1.15:0.00 / mixed_ref=1 / me_range=32 / chroma_me=1 / trellis=2 / 8x8dct=1 / cqm=0 / deadzone=21,11 / fast_pskip=1 / chroma_qp_offset=-2 / threads=6 / lookahead_threads=1 / sliced_threads=0 / nr=0 / decimate=1 / interlaced=0 / bluray_compat=0 / constrained_intra=0 / bframes=7 / b_pyramid=2 / b_adapt=2 / b_bias=0 / direct=1 / weightb=1 / open_gop=0 / weightp=2 / keyint=250 / keyint_min=24 / scenecut=40 / intra_refresh=0 / rc=crf / mbtree=0 / crf=20.7 / qcomp=0.60 / qpmin=0 / qpmax=69 / qpstep=4 / ip_ratio=1.40 / pb_ratio=1.30 / aq=2:0.80Language : EnglishEncoded date : UTC 2017-03-14 08:59:39Tagged date : UTC 2017-03-14 09:00:28Color range : LimitedColor primaries : BT.709Transfer characteristics : BT.709Matrix coefficients : BT.709

Audio #1ID : 2Format : AACFormat/Info : Advanced Audio CodecFormat profile : LCCodec ID : 40Duration : 1 h 35 minBit rate mode : VariableBit rate : 128 kb/sMaximum bit rate : 135 kb/sChannel(s) : 2 channelsChannel positions : Front: L RSampling rate : 48.0 kHzFrame rate : 46.875 FPS (1024 spf)Compression mode : LossyStream size : 87.4 MiB (5%)Title : Dub_ _Sovetskiy_Dublyazh_ / Dub_ _Sovetskiy_Dublyazh_Language : RussianDefault : YesAlternate group : 1Encoded date : UTC 2017-03-14 08:59:55Tagged date : UTC 2017-03-14 09:00:28

Audio #2ID : 3Format : AACFormat/Info : Advanced Audio CodecFormat profile : LCCodec ID : 40Duration : 1 h 35 minBit rate mode : VariableBit rate : 128 kb/sMaximum bit rate : 135 kb/sChannel(s) : 2 channelsChannel positions : Front: L RSampling rate : 48.0 kHzFrame rate : 46.875 FPS (1024 spf)Compression mode : LossyStream size : 87.4 MiB (5%)Title : Dub_ CTB / Dub_ CTBLanguage : UkrainianDefault : NoAlternate group : 1Encoded date : UTC 2017-03-14 09:00:04Tagged date : UTC 2017-03-14 09:00:28

Audio #3ID : 4Format : AACFormat/Info : Advanced Audio CodecFormat profile : LCCodec ID : 40Duration : 1 h 34 minBit rate mode : VariableBit rate : 128 kb/sMaximum bit rate : 134 kb/sChannel(s) : 2 channelsChannel positions : Front: L RSampling rate : 48.0 kHzFrame rate : 46.875 FPS (1024 spf)Compression mode : LossyStream size : 86.3 MiB (5%)Title : DVO_ HTB_ / DVO_ HTB_Language : RussianDefault : NoAlternate group : 1Encoded date : UTC 2017-03-14 09:00:08Tagged date : UTC 2017-03-14 09:00:28

Audio #4ID : 5Format : AACFormat/Info : Advanced Audio CodecFormat profile : LCCodec ID : 40Duration : 1 h 35 minBit rate mode : VariableBit rate : 128 kb/sMaximum bit rate : 135 kb/sChannel(s) : 2 channelsChannel positions : Front: L RSampling rate : 48.0 kHzFrame rate : 46.875 FPS (1024 spf)Compression mode : LossyStream size : 87.4 MiB (5%)Title : DVO_ 2_2 / DVO_ 2_2Language : UkrainianDefault : NoAlternate group : 1Encoded date : UTC 2017-03-14 09:00:14Tagged date : UTC 2017-03-14 09:00:28

Audio #5ID : 6Format : AACFormat/Info : Advanced Audio CodecFormat profile : LCCodec ID : 40Duration : 1 h 35 minBit rate mode : VariableBit rate : 128 kb/sMaximum bit rate : 135 kb/sChannel(s) : 2 channelsChannel positions : Front: L RSampling rate : 48.0 kHzFrame rate : 46.875 FPS (1024 spf)Compression mode : LossyStream size : 87.4 MiB (5%)Title : DVO_ K1 / DVO_ K1Language : UkrainianDefault : NoAlternate group : 1Encoded date : UTC 2017-03-14 09:00:17Tagged date : UTC 2017-03-14 09:00:28

Audio #6ID : 7Format : AACFormat/Info : Advanced Audio CodecFormat profile : LCCodec ID : 40Duration : 1 h 35 minBit rate mode : VariableBit rate : 128 kb/sMaximum bit rate : 135 kb/sChannel(s) : 2 channelsChannel positions : Front: L RSampling rate : 48.0 kHzFrame rate : 46.875 FPS (1024 spf)Compression mode : LossyStream size : 87.4 MiB (5%)Title : Original / OriginalLanguage : FrenchDefault : NoAlternate group : 1Encoded date : UTC 2017-03-14 09:00:21Tagged date : UTC 2017-03-14 09:00:28

Text #1ID : 8Format : Timed TextMuxing mode : sbtlCodec ID : tx3gDuration : 1 h 32 minBit rate mode : VariableBit rate : 91 b/sStream size : 61.2 KiB (0%)Title : Full / FullLanguage : RussianDefault : YesForced : NoAlternate group : 2Encoded date : UTC 2017-03-14 09:00:28Tagged date : UTC 2017-03-14 09:00:28

Text #2ID : 9Format : Timed TextMuxing mode : sbtlCodec ID : tx3gDuration : 1 h 32 minBit rate mode : VariableBit rate : 47 b/sStream size : 31.6 KiB (0%)Title : Full / FullLanguage : EnglishDefault : NoForced : NoAlternate group : 2Encoded date : UTC 2017-03-14 09:00:28Tagged date : UTC 2017-03-14 09:00:28

Text #3ID : 10Format : Timed TextMuxing mode : sbtlCodec ID : tx3gDuration : 1 h 31 minBit rate mode : VariableBit rate : 55 b/sStream size : 37.1 KiB (0%)Title : Full / FullLanguage : FrenchDefault : NoForced : NoAlternate group : 2Encoded date : UTC 2017-03-14 09:00:28Tagged date : UTC 2017-03-14 09:00:28


Трекер:  [ 14-Мар-2017 11:00 ]

  

Скачать .torrent

Размер .torrent файла 18 KB


Размер: 1.75 GB
Хэш (hash) релиза: 773c86a0c63c1288afcd473c87e955391eb4cc45

Торренты, похожие на [VIDEO] Укол зонтиком Umbrella Coup скачать торрент

Форум Название Автор Размер S L Добавлен
Видео (Фильмы/Клипы) ·· [VIDEO] Укол зонтиком / Umbrella Coup / Le coup du parapluie (Жерар Ури / Gérard Oury) [1980, комедия, HDRip] [MP4, 480x] Dub Galfimbul 457338043436 MB 0 0 1489484701

12:45

14-Мар-17

Еще никто не оставлял запись к записи скачать торрент [VIDEO] Укол зонтиком Umbrella Coup . Будь первым!

!Обратная связь