Tears to Tiara | Mickey Mouse Clubhouse 7.6 | Tomasz Kot

Скачать через торрент музыку Qlimax 2009 Live Registration бесплатно без регистрации torrent

Статистика раздачи
Размер:  21.8 GB   |    Зарегистрирован:  6 лет 11 месяцев   |    .torrent скачан:  33 раза   |   
Раздают:  1  
   
загрузка...
 
Автор Сообщение

Galfimbul

avatar Galfimbul


Qlimax 2009 Live Registration

Год выпуска: 2010
Жанр: Hardstyle
Продолжительность: 01:43:13

Описание

Qlimax - ежегодный hardstyle фестиваль, проводимый в Голландии на стадионе Gelredome в городе Арнем. Это одно из ведущих событий в пределах Hardstyle сообщества, и одна из главных достопримечательностей, проводимых Q-Dance. Традиционно выделяется масштабным световым и лазерным шоу. Голландский выпуск Qlimax проводится в третий или четвертый уикенд ноября каждый год.

Тема фестиваля: Nature Of Our Mind

Диджеи: Isaac, A-Lusion, Davide Sonar, Brennan Heart, Technoboy, D-Block & S-te-Fan, Headhunterz, Noisecontrollers, Deepack, Noize Suppressor.

Bonus Materials

The Documentary
Brennan Heart Live
The Trailer

Качество: Blu-ray
Формат: BDMV
Видео кодек: MPEG-4 AVC
Аудио кодек: DTS, AC3
Видео: 1920x1080i, MPEG-4 AVC, 25 fps, ~ 17.9 Mbps
Аудио:
DTS-HD MA 5.1, 48 kHz, 16 bit, 3269 kbps
AC3 5.1, 48 kHz, 448 kbps
Disc Title:
Disc Size: 23 404 801 364 bytes
Protection: AACS
BD-Java: No
BDInfo: 0.5.3

Notes:

BDINFO HOME:
Cinema Squid
http://www.cinemasquid.com/blu-ray/tools/bdinfo

INCLUDES FORUMS REPORT FOR:
AVS Forum Blu-ray Audio and Video Specifications Thread
http://www.avsforum.com/avs-vb/showthread.php?t=1155731

********************
PLAYLIST: 00004.MPLS
********************

<--- BEGIN FORUMS PASTE --->

Код:

Total   Video
Title                                                           Codec   Length  Movie Size      Disc Size       Bitrate Bitrate Main Audio Track                          Secondary Audio Track
-----                                                           ------  ------- --------------  --------------  ------- ------- ------------------                        ---------------------
00004.MPLS                                                      AVC     1:43:13 17 739 320 256  23 404 801 364  22,91   17,91   DTS-HD Master 5.1 3269Kbps (48kHz/16-bit) DD AC3 5.1 448Kbps[/spoiler]
[code]DISC INFO:

Disc Title:
Disc Size:      23 404 801 364 bytes
Protection:     AACS
BD-Java:        No
BDInfo:         0.5.3

PLAYLIST REPORT:

Name:                   00004.MPLS
Length:                 1:43:13 (h:m:s)
Size:                   17 739 320 256 bytes
Total Bitrate:          22,91 Mbps

VIDEO:

Codec                   Bitrate             Description
-----                   -------             -----------
MPEG-4 AVC Video        17911 kbps          1080i / 25 fps / 16:9 / High Profile 4.1

AUDIO:

Codec                           Language        Bitrate         Description
-----                           --------        -------         -----------
DTS-HD Master Audio             English         3269 kbps       5.1 / 48 kHz / 3269 kbps / 16-bit (DTS Core: 5.1 / 48 kHz / 1509 kbps / 16-bit)
Dolby Digital Audio             English         448 kbps        5.1 / 48 kHz / 448 kbps

FILES:

Name            Time In         Length          Size            Total Bitrate
----            -------         ------          ----            -------------
00007.M2TS      0:00:00.000     1:43:13.760     17 739 320 256  22 912

CHAPTERS:

Number          Time In         Length          Avg Video Rate  Max 1-Sec Rate  Max 1-Sec Time  Max 5-Sec Rate  Max 5-Sec Time  Max 10Sec Rate  Max 10Sec Time  Avg Frame Size  Max Frame Size  Max Frame Time
------          -------         ------          --------------  --------------  --------------  --------------  --------------  --------------  --------------  --------------  --------------  --------------
1               0:00:00.000     0:01:12.679     8 486 kbps      14 721 kbps     00:01:09.480    11 811 kbps     00:01:07.039    10 664 kbps     00:01:02.639    42 406 bytes    209 008 bytes   00:01:10.080
2               0:01:12.679     0:03:32.880     13 688 kbps     25 427 kbps     00:04:11.400    20 735 kbps     00:04:11.000    19 694 kbps     00:04:10.840    68 442 bytes    238 804 bytes   00:04:12.120
3               0:04:45.559     0:04:09.320     15 205 kbps     21 405 kbps     00:06:02.360    18 016 kbps     00:08:06.440    17 280 kbps     00:08:35.920    76 026 bytes    251 398 bytes   00:06:39.320
4               0:08:54.880     0:02:28.079     14 499 kbps     24 664 kbps     00:10:04.559    20 616 kbps     00:10:31.720    19 712 kbps     00:10:28.920    72 496 bytes    246 367 bytes   00:11:17.920
5               0:11:22.960     0:04:42.639     17 284 kbps     27 064 kbps     00:12:40.160    23 254 kbps     00:12:36.359    22 000 kbps     00:12:35.240    86 420 bytes    279 066 bytes   00:16:04.880
6               0:16:05.600     0:02:38.080     18 678 kbps     29 130 kbps     00:17:56.240    25 982 kbps     00:18:24.800    23 020 kbps     00:17:53.680    93 388 bytes    279 341 bytes   00:18:27.440
7               0:18:43.680     0:07:41.319     18 349 kbps     28 392 kbps     00:25:38.440    23 857 kbps     00:25:38.440    22 790 kbps     00:25:35.920    91 746 bytes    275 075 bytes   00:19:42.320
8               0:26:25.000     0:02:46.079     19 308 kbps     31 714 kbps     00:27:46.480    26 593 kbps     00:27:45.440    24 222 kbps     00:27:43.280    96 542 bytes    284 490 bytes   00:27:46.679
9               0:29:11.080     0:07:47.200     19 000 kbps     27 130 kbps     00:32:22.320    23 708 kbps     00:32:09.840    22 821 kbps     00:33:58.920    94 999 bytes    278 676 bytes   00:32:14.719
10              0:36:58.280     0:02:35.159     18 997 kbps     29 315 kbps     00:39:21.920    24 218 kbps     00:39:27.280    23 667 kbps     00:39:22.000    94 984 bytes    271 609 bytes   00:39:30.600
11              0:39:33.440     0:06:02.799     19 498 kbps     27 692 kbps     00:44:11.880    24 210 kbps     00:44:08.920    22 638 kbps     00:44:28.240    97 488 bytes    276 743 bytes   00:43:53.880
12              0:45:36.239     0:04:48.320     18 287 kbps     30 376 kbps     00:46:21.239    25 423 kbps     00:48:42.880    24 253 kbps     00:48:42.320    91 437 bytes    283 052 bytes   00:49:46.360
13              0:50:24.560     0:06:03.559     19 522 kbps     28 778 kbps     00:51:29.600    23 368 kbps     00:52:41.520    22 400 kbps     00:52:14.320    97 612 bytes    278 311 bytes   00:52:43.480
14              0:56:28.120     0:01:58.680     18 988 kbps     27 836 kbps     00:57:11.400    23 636 kbps     00:57:55.600    23 184 kbps     00:58:12.800    94 938 bytes    256 864 bytes   00:57:25.560
15              0:58:26.800     0:08:35.760     19 151 kbps     30 197 kbps     01:01:20.880    23 955 kbps     01:01:28.120    22 461 kbps     00:59:14.160    95 753 bytes    276 530 bytes   01:01:28.360
16              1:07:02.560     0:05:33.639     18 355 kbps     30 689 kbps     01:11:16.800    24 499 kbps     01:10:46.720    23 315 kbps     01:11:22.560    91 774 bytes    276 013 bytes   01:10:17.479
17              1:12:36.200     0:07:09.079     18 972 kbps     29 160 kbps     01:17:21.439    24 315 kbps     01:17:18.280    22 494 kbps     01:17:51.600    94 860 bytes    279 238 bytes   01:15:57.560
18              1:19:45.280     0:01:50.199     18 513 kbps     29 963 kbps     01:21:03.160    26 060 kbps     01:20:59.439    24 222 kbps     01:20:58.280    92 564 bytes    274 940 bytes   01:20:49.840
19              1:21:35.479     0:06:52.760     18 971 kbps     28 765 kbps     01:26:49.240    24 556 kbps     01:26:48.160    22 687 kbps     01:22:51.520    94 857 bytes    282 698 bytes   01:22:30.720
20              1:28:28.240     0:02:10.720     19 610 kbps     31 166 kbps     01:29:52.160    23 456 kbps     01:29:52.120    22 300 kbps     01:28:57.760    98 051 bytes    257 959 bytes   01:29:15.520
21              1:30:38.960     0:06:02.600     18 887 kbps     28 623 kbps     01:35:56.040    25 554 kbps     01:35:44.360    24 235 kbps     01:35:44.360    94 433 bytes    277 865 bytes   01:32:48.880
22              1:36:41.560     0:02:52.960     19 377 kbps     28 719 kbps     01:38:09.080    24 966 kbps     01:38:07.560    24 064 kbps     01:38:07.920    96 885 bytes    276 689 bytes   01:37:57.439
23              1:39:34.520     0:03:39.239     7 588 kbps      20 926 kbps     01:39:34.520    15 956 kbps     01:42:11.080    14 201 kbps     01:42:10.880    37 941 bytes    259 983 bytes   01:39:34.640

STREAM DIAGNOSTICS:

File            PID             Type            Codec           Language                Seconds                 Bitrate                 Bytes           Packets
----            ---             ----            -----           --------                --------------          --------------          -------------   -----
00007.M2TS      4113 (0x1011)   0x1B            AVC                                     6227,360                17 815                  13 867 698 801  75 537 490
00007.M2TS      4352 (0x1100)   0x81            AC3             eng (English)           6227,360                446                     346 848 768     1 935 540
00007.M2TS      4353 (0x1101)   0x86            DTS-HD MA       eng (English)           6227,360                3 251                   2 530 722 624   14 716 291[/code]
<---- END FORUMS PASTE ---->

QUICK SUMMARY:

Disc Title:
Disc Size: 23 404 801 364 bytes
Protection: AACS
BD-Java: No
Playlist: 00004.MPLS
Size: 17 739 320 256 bytes
Length: 1:43:13
Total Bitrate: 22,91 Mbps
Video: MPEG-4 AVC Video / 17911 kbps / 1080i / 25 fps / 16:9 / High Profile 4.1
Audio: English / DTS-HD Master Audio / 5.1 / 48 kHz / 3269 kbps / 16-bit (DTS Core: 5.1 / 48 kHz / 1509 kbps / 16-bit)
Audio: English / Dolby Digital Audio / 5.1 / 48 kHz / 448 kbps

********************
PLAYLIST: 00003.MPLS
********************

<--- BEGIN FORUMS PASTE --->
[code]Total   Video
Title                                                           Codec   Length  Movie Size      Disc Size       Bitrate Bitrate Main Audio Track                          Secondary Audio Track
-----                                                           ------  ------- --------------  --------------  ------- ------- ------------------                        ---------------------
00003.MPLS                                                      AVC     0:26:12 3 224 100 864   23 404 801 364  16,40   14,71   DD AC3 5.1 448Kbps                        DD AC3 5.1 448Kbps[/code]
[code]DISC INFO:

Disc Title:
Disc Size:      23 404 801 364 bytes
Protection:     AACS
BD-Java:        No
BDInfo:         0.5.3

PLAYLIST REPORT:

Name:                   00003.MPLS
Length:                 0:26:12 (h:m:s)
Size:                   3 224 100 864 bytes
Total Bitrate:          16,40 Mbps

VIDEO:

Codec                   Bitrate             Description
-----                   -------             -----------
MPEG-4 AVC Video        14712 kbps          1080i / 25 fps / 16:9 / High Profile 4.1

AUDIO:

Codec                           Language        Bitrate         Description
-----                           --------        -------         -----------
Dolby Digital Audio             English         448 kbps        5.1 / 48 kHz / 448 kbps
Dolby Digital Audio             English         448 kbps        5.1 / 48 kHz / 448 kbps

FILES:

Name            Time In         Length          Size            Total Bitrate
----            -------         ------          ----            -------------
00005.M2TS      0:00:00.000     0:26:12.280     3 224 100 864   16 405

CHAPTERS:

Number          Time In         Length          Avg Video Rate  Max 1-Sec Rate  Max 1-Sec Time  Max 5-Sec Rate  Max 5-Sec Time  Max 10Sec Rate  Max 10Sec Time  Avg Frame Size  Max Frame Size  Max Frame Time
------          -------         ------          --------------  --------------  --------------  --------------  --------------  --------------  --------------  --------------  --------------  --------------
1               0:00:00.000     0:03:05.440     15 008 kbps     22 204 kbps     00:03:03.240    20 537 kbps     00:01:39.600    19 966 kbps     00:01:34.920    75 024 bytes    234 279 bytes   00:01:38.799
2               0:03:05.440     0:03:50.839     14 487 kbps     21 549 kbps     00:05:48.440    19 073 kbps     00:05:39.799    18 943 kbps     00:05:39.720    72 437 bytes    222 817 bytes   00:06:43.120
3               0:06:56.279     0:02:19.120     14 642 kbps     24 890 kbps     00:08:12.000    20 713 kbps     00:08:11.680    19 261 kbps     00:08:11.400    73 208 bytes    221 935 bytes   00:06:56.559
4               0:09:15.400     0:03:19.639     16 193 kbps     26 944 kbps     00:10:09.079    21 632 kbps     00:09:55.839    21 132 kbps     00:09:49.400    80 963 bytes    233 810 bytes   00:10:02.720
5               0:12:35.040     0:03:41.400     17 558 kbps     26 626 kbps     00:13:34.000    23 456 kbps     00:13:29.960    22 271 kbps     00:13:30.800    87 789 bytes    237 842 bytes   00:13:06.640
6               0:16:16.440     0:02:18.839     13 911 kbps     24 545 kbps     00:18:07.880    23 035 kbps     00:18:05.000    22 546 kbps     00:18:04.600    69 553 bytes    222 919 bytes   00:17:47.760
7               0:18:35.280     0:03:03.720     12 997 kbps     23 180 kbps     00:20:21.560    22 274 kbps     00:20:21.119    21 376 kbps     00:20:19.600    64 983 bytes    225 327 bytes   00:19:37.440
8               0:21:39.000     0:02:55.679     13 085 kbps     19 960 kbps     00:24:21.560    17 407 kbps     00:23:54.560    16 734 kbps     00:23:54.480    65 423 bytes    227 617 bytes   00:24:22.560
9               0:24:34.679     0:01:37.600     12 596 kbps     21 341 kbps     00:25:02.840    19 644 kbps     00:25:00.800    18 897 kbps     00:25:00.560    63 007 bytes    229 126 bytes   00:25:10.560

STREAM DIAGNOSTICS:

File            PID             Type            Codec           Language                Seconds                 Bitrate                 Bytes           Packets
----            ---             ----            -----           --------                --------------          --------------          -------------   -----
00005.M2TS      4113 (0x1011)   0x1B            AVC                                     1572,200                14 713                  2 891 436 955   15 756 810
00005.M2TS      4352 (0x1100)   0x81            AC3             eng (English)           1572,200                448                     88 048 128      491 340
00005.M2TS      4353 (0x1101)   0x81            AC3             eng (English)           1572,200                448                     88 048 128      491 340[/code]
<---- END FORUMS PASTE ---->

QUICK SUMMARY:

Disc Title:
Disc Size: 23 404 801 364 bytes
Protection: AACS
BD-Java: No
Playlist: 00003.MPLS
Size: 3 224 100 864 bytes
Length: 0:26:12
Total Bitrate: 16,40 Mbps
Video: MPEG-4 AVC Video / 14712 kbps / 1080i / 25 fps / 16:9 / High Profile 4.1
Audio: English / Dolby Digital Audio / 5.1 / 48 kHz / 448 kbps
Audio: English / Dolby Digital Audio / 5.1 / 48 kHz / 448 kbps

********************
PLAYLIST: 00005.MPLS
********************

<--- BEGIN FORUMS PASTE --->
[code]Total   Video
Title                                                           Codec   Length  Movie Size      Disc Size       Bitrate Bitrate Main Audio Track                          Secondary Audio Track
-----                                                           ------  ------- --------------  --------------  ------- ------- ------------------                        ---------------------
00005.MPLS                                                      AVC     0:15:07 2 195 300 352   23 404 801 364  19,35   18,00   DD AC3 5.1 448Kbps[/code]
[code]DISC INFO:

Disc Title:
Disc Size:      23 404 801 364 bytes
Protection:     AACS
BD-Java:        No
BDInfo:         0.5.3

PLAYLIST REPORT:

Name:                   00005.MPLS
Length:                 0:15:07 (h:m:s)
Size:                   2 195 300 352 bytes
Total Bitrate:          19,35 Mbps

VIDEO:

Codec                   Bitrate             Description
-----                   -------             -----------
MPEG-4 AVC Video        17996 kbps          1080i / 25 fps / 16:9 / High Profile 4.1

AUDIO:

Codec                           Language        Bitrate         Description
-----                           --------        -------         -----------
Dolby Digital Audio             English         448 kbps        5.1 / 48 kHz / 448 kbps

FILES:

Name            Time In         Length          Size            Total Bitrate
----            -------         ------          ----            -------------
00009.M2TS      0:00:00.000     0:15:07.560     2 195 300 352   19 351

CHAPTERS:

Number          Time In         Length          Avg Video Rate  Max 1-Sec Rate  Max 1-Sec Time  Max 5-Sec Rate  Max 5-Sec Time  Max 10Sec Rate  Max 10Sec Time  Avg Frame Size  Max Frame Size  Max Frame Time
------          -------         ------          --------------  --------------  --------------  --------------  --------------  --------------  --------------  --------------  --------------  --------------
1               0:00:00.000     0:15:07.560     17 996 kbps     29 857 kbps     00:11:36.680    26 897 kbps     00:14:14.319    25 912 kbps     00:03:49.400    89 978 bytes    306 053 bytes   00:11:38.000

STREAM DIAGNOSTICS:

File            PID             Type            Codec           Language                Seconds                 Bitrate                 Bytes           Packets
----            ---             ----            -----           --------                --------------          --------------          -------------   -----
00009.M2TS      4113 (0x1011)   0x1B            AVC                                     907,400                 17 999                  2 041 502 771   11 119 795
00009.M2TS      4352 (0x1100)   0x81            AC3             eng (English)           907,400                 448                     50 824 704      283 620[/code]
<---- END FORUMS PASTE ---->

QUICK SUMMARY:

Disc Title:
Disc Size: 23 404 801 364 bytes
Protection: AACS
BD-Java: No
Playlist: 00005.MPLS
Size: 2 195 300 352 bytes
Length: 0:15:07
Total Bitrate: 19,35 Mbps
Video: MPEG-4 AVC Video / 17996 kbps / 1080i / 25 fps / 16:9 / High Profile 4.1
Audio: English / Dolby Digital Audio / 5.1 / 48 kHz / 448 kbps

********************
PLAYLIST: 00001.MPLS
********************

<--- BEGIN FORUMS PASTE --->
[code]Total   Video
Title                                                           Codec   Length  Movie Size      Disc Size       Bitrate Bitrate Main Audio Track                          Secondary Audio Track
-----                                                           ------  ------- --------------  --------------  ------- ------- ------------------                        ---------------------
00001.MPLS                                                      AVC     0:02:39 91 926 528      23 404 801 364  4,62    3,81    DD AC3 5.1 448Kbps[/code]
[code]DISC INFO:

Disc Title:
Disc Size:      23 404 801 364 bytes
Protection:     AACS
BD-Java:        No
BDInfo:         0.5.3

PLAYLIST REPORT:

Name:                   00001.MPLS
Length:                 0:02:39 (h:m:s)
Size:                   91 926 528 bytes
Total Bitrate:          4,62 Mbps

VIDEO:

Codec                   Bitrate             Description
-----                   -------             -----------
MPEG-4 AVC Video        3807 kbps           1080i / 25 fps / 16:9 / High Profile 4.1

AUDIO:

Codec                           Language        Bitrate         Description
-----                           --------        -------         -----------
Dolby Digital Audio             English         448 kbps        5.1 / 48 kHz / 448 kbps

SUBTITLES:

Codec                           Language        Bitrate         Description
-----                           --------        -------         -----------
Interactive Graphics            English         72,868 kbps

FILES:

Name            Time In         Length          Size            Total Bitrate
----            -------         ------          ----            -------------
00000.M2TS      0:00:00.000     0:02:39.080     91 926 528      4 623

CHAPTERS:

Number          Time In         Length          Avg Video Rate  Max 1-Sec Rate  Max 1-Sec Time  Max 5-Sec Rate  Max 5-Sec Time  Max 10Sec Rate  Max 10Sec Time  Avg Frame Size  Max Frame Size  Max Frame Time
------          -------         ------          --------------  --------------  --------------  --------------  --------------  --------------  --------------  --------------  --------------  --------------
1               0:00:00.000     0:02:39.080     3 807 kbps      22 643 kbps     00:00:30.679    15 579 kbps     00:00:28.320    14 513 kbps     00:00:22.840    19 036 bytes    205 896 bytes   00:00:31.679

STREAM DIAGNOSTICS:

File            PID             Type            Codec           Language                Seconds                 Bitrate                 Bytes           Packets
----            ---             ----            -----           --------                --------------          --------------          -------------   -----
00000.M2TS      4113 (0x1011)   0x1B            AVC                                     159,000                 3 809                   75 706 865      415 764
00000.M2TS      4352 (0x1100)   0x81            AC3             eng (English)           159,000                 448                     8 909 824       49 720
00000.M2TS      5120 (0x1400)   0x91            IGS             eng (English)           159,000                 73                      1 448 984       7 931[/code]
<---- END FORUMS PASTE ---->

QUICK SUMMARY:

Disc Title:
Disc Size: 23 404 801 364 bytes
Protection: AACS
BD-Java: No
Playlist: 00001.MPLS
Size: 91 926 528 bytes
Length: 0:02:39
Total Bitrate: 4,62 Mbps
Video: MPEG-4 AVC Video / 3807 kbps / 1080i / 25 fps / 16:9 / High Profile 4.1
Audio: English / Dolby Digital Audio / 5.1 / 48 kHz / 448 kbps
Subtitle: English / 72,868 kbps

********************
PLAYLIST: 00002.MPLS
********************

<--- BEGIN FORUMS PASTE --->
[code]Total   Video
Title                                                           Codec   Length  Movie Size      Disc Size       Bitrate Bitrate Main Audio Track                          Secondary Audio Track
-----                                                           ------  ------- --------------  --------------  ------- ------- ------------------                        ---------------------
00002.MPLS                                                      AVC     0:01:20 105 996 288     23 404 801 364  10,60   9,61    DD AC3 5.1 448Kbps[/code]
[code]DISC INFO:

Disc Title:
Disc Size:      23 404 801 364 bytes
Protection:     AACS
BD-Java:        No
BDInfo:         0.5.3

PLAYLIST REPORT:

Name:                   00002.MPLS
Length:                 0:01:20 (h:m:s)
Size:                   105 996 288 bytes
Total Bitrate:          10,60 Mbps

VIDEO:

Codec                   Bitrate             Description
-----                   -------             -----------
MPEG-4 AVC Video        9607 kbps           1080i / 25 fps / 16:9 / High Profile 4.1

AUDIO:

Codec                           Language        Bitrate         Description
-----                           --------        -------         -----------
Dolby Digital Audio             English         448 kbps        5.1 / 48 kHz / 448 kbps

FILES:

Name            Time In         Length          Size            Total Bitrate
----            -------         ------          ----            -------------
00003.M2TS      0:00:00.000     0:01:20.000     105 996 288     10 600

CHAPTERS:

Number          Time In         Length          Avg Video Rate  Max 1-Sec Rate  Max 1-Sec Time  Max 5-Sec Rate  Max 5-Sec Time  Max 10Sec Rate  Max 10Sec Time  Avg Frame Size  Max Frame Size  Max Frame Time
------          -------         ------          --------------  --------------  --------------  --------------  --------------  --------------  --------------  --------------  --------------  --------------
1               0:00:00.000     0:01:20.000     9 607 kbps      21 875 kbps     00:00:43.000    19 751 kbps     00:00:41.919    18 295 kbps     00:00:36.920    48 033 bytes    210 745 bytes   00:00:19.639

STREAM DIAGNOSTICS:

File            PID             Type            Codec           Language                Seconds                 Bitrate                 Bytes           Packets
----            ---             ----            -----           --------                --------------          --------------          -------------   -----
00003.M2TS      4113 (0x1011)   0x1B            AVC                                     79,880                  9 621                   96 066 267      524 360
00003.M2TS      4352 (0x1100)   0x81            AC3             eng (English)           79,880                  449                     4 480 000       25 000[/code]
<---- END FORUMS PASTE ---->

QUICK SUMMARY:

Disc Title:
Disc Size: 23 404 801 364 bytes
Protection: AACS
BD-Java: No
Playlist: 00002.MPLS
Size: 105 996 288 bytes
Length: 0:01:20
Total Bitrate: 10,60 Mbps
Video: MPEG-4 AVC Video / 9607 kbps / 1080i / 25 fps / 16:9 / High Profile 4.1
Audio: English / Dolby Digital Audio / 5.1 / 48 kHz / 448 kbps


Трекер:  [ 29-Июл-2011 16:26 ]

  

Скачать .torrent

Размер .torrent файла 112 KB


Размер: 21.8 GB
Хэш (hash) релиза: d5661592fe50f84c42b032539d210cc9e288ce3b

Торренты, похожие на Qlimax 2009 Live Registration скачать торрент

Форум Название Автор Размер S L Добавлен
Электронная музыка (video) ·· Qlimax 2009 Live Registration [2010 г., Hardstyle, Hardcore, BDRip] Galfimbul 782782464747 MB 0 0 1294845869

18:24

12-Янв-11

Электронная музыка (video) ·· Qlimax 2009 Live Registration (Qdance) [2010 г., Hardstyle, DVD5 (сжатый)] Galfimbul 46368276484.32 GB 0 0 1294835645

15:34

12-Янв-11

Электронная музыка (video) ·· Qlimax 2009 Live Registration [2010 г., hardstyle, DVD9] Galfimbul 76465664007.12 GB 0 0 1294835466

15:31

12-Янв-11

Еще никто не оставлял запись к записи скачать торрент Qlimax 2009 Live Registration . Будь первым!

!Обратная связь