It Reaches Out | Les Etoiles Restantes | Terra Formars: Aratanaru Kibo

Скачать через торрент музыку Decibel 2010 - The Live Registration бесплатно без регистрации torrent

Статистика раздачи
Размер:  20.56 GB   |    Зарегистрирован:  7 лет   |    .torrent скачан:  36 раз   |   
Раздают:  1  
   
загрузка...
 
Автор Сообщение

Galfimbul

avatar Galfimbul


Decibel 2010 - The Live Registration

Жанр: Music Video, Dance Event, Hardstyle
Продолжительность: 01:44:14
Год выпуска: 2010
Описание:

Decibel Outdoor - 2010 Live Registration, Qlimax, Defqon One, Sensation Black - это одна из самых известных и в то же врмя закрытых вечеринок проходившая 15 августа 2010 года в Европе, а именно в Нидерландах , хард транс пати Decibel Outdoor. Вcем любителям настоящего тяжёлого транса.... В концерте выступили такие известные DJ Isaac, Zany, Dana, Headhanterz, D-Block and S-Te-Fan, The Prophet, Neophyte и т.д.

Качество: Blu-ray
Контейнер: BDMV
Аудио кодек: DTS
Видео: MPEG-4 AVC Video / 15671 kbps / 1080i / 25 fps / 16:9 / High Profile 4.1
Аудио: Dolby Digital Audio / 448 kbps 5.1 / 48 kHz / 448 kbps / DN -4dB
Disc Title: Decibel 2010 - The Live Registration
Disc Size: 22 071 717 248 bytes
Protection: AACS
BD-Java: No
BDInfo: 0.5.6

Notes:

BDINFO HOME:
Cinema Squid
http://www.cinemasquid.com/blu-ray/tools/bdinfo

INCLUDES FORUMS REPORT FOR:
AVS Forum Blu-ray Audio and Video Specifications Thread
http://www.avsforum.com/avs-vb/showthread.php?t=1155731

********************
PLAYLIST: 00003.MPLS
********************

<--- BEGIN FORUMS PASTE --->

Код:

Total   Video
Title                                                           Codec   Length  Movie Size      Disc Size       Bitrate Bitrate Main Audio Track                          Secondary Audio Track
-----                                                           ------  ------- --------------  --------------  ------- ------- ------------------                        ---------------------
00003.MPLS                                                      AVC     1:44:14 13 219 147 968  22 071 717 248  16,91   15,67   DD AC3 5.1 448Kbps[/spoiler]
[code]DISC INFO:

Disc Title:     Decibel 2010 - The Live Registration
Disc Size:      22 071 717 248 bytes
Protection:     AACS
BD-Java:        No
BDInfo:         0.5.6

PLAYLIST REPORT:

Name:                   00003.MPLS
Length:                 1:44:14 (h:m:s)
Size:                   13 219 147 968 bytes
Total Bitrate:          16,91 Mbps

VIDEO:

Codec                   Bitrate             Description
-----                   -------             -----------
MPEG-4 AVC Video        15671 kbps          1080i / 25 fps / 16:9 / High Profile 4.1

AUDIO:

Codec                           Language        Bitrate         Description
-----                           --------        -------         -----------
Dolby Digital Audio             Dutch           448 kbps        5.1 / 48 kHz / 448 kbps / DN -4dB

FILES:

Name            Time In         Length          Size            Total Bitrate
----            -------         ------          ----            -------------
00008.M2TS      0:00:00.000     1:44:14.920     13 219 147 968  16 907

CHAPTERS:

Number          Time In         Length          Avg Video Rate  Max 1-Sec Rate  Max 1-Sec Time  Max 5-Sec Rate  Max 5-Sec Time  Max 10Sec Rate  Max 10Sec Time  Avg Frame Size  Max Frame Size  Max Frame Time
------          -------         ------          --------------  --------------  --------------  --------------  --------------  --------------  --------------  --------------  --------------  --------------
1               0:00:00.000     0:01:40.840     15 126 kbps     30 030 kbps     00:00:10.279    20 424 kbps     00:00:10.159    18 144 kbps     00:00:02.519    75 599 bytes    542 110 bytes   00:01:29.000
2               0:01:40.840     0:06:28.120     15 494 kbps     27 839 kbps     00:03:34.279    19 522 kbps     00:01:44.600    18 127 kbps     00:06:37.240    77 472 bytes    713 611 bytes   00:05:16.520
3               0:08:08.960     0:07:42.559     15 668 kbps     25 404 kbps     00:09:51.880    19 806 kbps     00:09:47.880    18 697 kbps     00:09:42.840    78 338 bytes    682 440 bytes   00:11:12.800
4               0:15:51.520     0:11:33.679     15 307 kbps     27 988 kbps     00:21:07.200    19 853 kbps     00:23:10.520    18 883 kbps     00:23:07.400    76 536 bytes    872 365 bytes   00:21:46.760
5               0:27:25.199     0:11:00.920     15 890 kbps     28 523 kbps     00:31:33.120    20 937 kbps     00:31:29.080    18 715 kbps     00:37:12.720    79 449 bytes    615 787 bytes   00:35:06.440
6               0:38:26.120     0:08:09.280     15 361 kbps     24 584 kbps     00:42:29.880    19 186 kbps     00:42:25.880    18 274 kbps     00:44:15.200    76 806 bytes    807 679 bytes   00:39:36.400
7               0:46:35.400     0:07:45.360     16 195 kbps     25 747 kbps     00:47:02.040    20 101 kbps     00:50:28.120    18 735 kbps     00:50:23.440    80 973 bytes    690 129 bytes   00:48:16.520
8               0:54:20.760     0:09:35.840     16 159 kbps     25 816 kbps     00:55:02.640    20 264 kbps     00:57:24.120    19 347 kbps     00:54:53.640    80 794 bytes    705 570 bytes   00:54:27.640
9               1:03:56.600     0:08:58.839     15 738 kbps     32 369 kbps     01:12:36.160    19 903 kbps     01:11:03.560    18 733 kbps     01:11:12.600    78 690 bytes    621 571 bytes   01:04:25.600
10              1:12:55.439     0:19:37.640     15 559 kbps     26 626 kbps     01:24:11.200    20 797 kbps     01:16:45.720    18 716 kbps     01:28:44.439    77 797 bytes    725 696 bytes   01:13:18.600
11              1:32:33.080     0:11:41.840     15 610 kbps     25 493 kbps     01:40:01.640    20 409 kbps     01:43:23.640    20 034 kbps     01:43:19.560    78 058 bytes    511 693 bytes   01:33:06.520

STREAM DIAGNOSTICS:

File            PID             Type            Codec           Language                Seconds                 Bitrate                 Bytes           Packets
----            ---             ----            -----           --------                --------------          --------------          -------------   -----
00008.M2TS      4113 (0x1011)   0x1B            AVC                                     6254,840                15 672                  12 252 842 913  66 685 546
00008.M2TS      4352 (0x1100)   0x81            AC3             nld (Dutch)             6254,840                448                     350 273 280     1 954 650[/code]
<---- END FORUMS PASTE ---->

QUICK SUMMARY:

Disc Title: Decibel 2010 - The Live Registration
Disc Size: 22 071 717 248 bytes
Protection: AACS
BD-Java: No
Playlist: 00003.MPLS
Size: 13 219 147 968 bytes
Length: 1:44:14
Total Bitrate: 16,91 Mbps
Video: MPEG-4 AVC Video / 15671 kbps / 1080i / 25 fps / 16:9 / High Profile 4.1
Audio: Dutch / Dolby Digital Audio / 5.1 / 48 kHz / 448 kbps / DN -4dB

********************
PLAYLIST: 00002.MPLS
********************

<--- BEGIN FORUMS PASTE --->
[code]Total   Video
Title                                                           Codec   Length  Movie Size      Disc Size       Bitrate Bitrate Main Audio Track                          Secondary Audio Track
-----                                                           ------  ------- --------------  --------------  ------- ------- ------------------                        ---------------------
00002.MPLS                                                      AVC     1:08:45 8 512 187 520   22 071 717 248  16,51   15,27   DD AC3 5.1 448Kbps[/code]
[code]DISC INFO:

Disc Title:     Decibel 2010 - The Live Registration
Disc Size:      22 071 717 248 bytes
Protection:     AACS
BD-Java:        No
BDInfo:         0.5.6

PLAYLIST REPORT:

Name:                   00002.MPLS
Length:                 1:08:45 (h:m:s)
Size:                   8 512 187 520 bytes
Total Bitrate:          16,51 Mbps

VIDEO:

Codec                   Bitrate             Description
-----                   -------             -----------
MPEG-4 AVC Video        15273 kbps          1080i / 25 fps / 16:9 / Main Profile 4.0

AUDIO:

Codec                           Language        Bitrate         Description
-----                           --------        -------         -----------
Dolby Digital Audio             Dutch           448 kbps        5.1 / 48 kHz / 448 kbps / DN -4dB

FILES:

Name            Time In         Length          Size            Total Bitrate
----            -------         ------          ----            -------------
00018.M2TS      0:00:00.000     0:05:00.039     605 749 248     16 151
00012.M2TS      0:05:00.039     0:04:57.640     598 253 568     16 080
00016.M2TS      0:09:57.679     0:06:26.440     780 521 472     16 158
00014.M2TS      0:16:24.120     0:07:19.559     886 173 696     16 128
00010.M2TS      0:23:43.679     0:05:00.039     605 552 640     16 146
00011.M2TS      0:28:43.719     0:09:59.559     1 211 940 864   16 171
00015.M2TS      0:38:43.279     0:04:51.559     588 963 840     16 160
00013.M2TS      0:43:34.839     0:10:21.800     1 253 677 056   16 130
00009.M2TS      0:53:56.639     0:06:42.840     802 342 272     15 931
00017.M2TS      1:00:39.479     0:08:06.040     1 179 012 864   19 404

CHAPTERS:

Number          Time In         Length          Avg Video Rate  Max 1-Sec Rate  Max 1-Sec Time  Max 5-Sec Rate  Max 5-Sec Time  Max 10Sec Rate  Max 10Sec Time  Avg Frame Size  Max Frame Size  Max Frame Time
------          -------         ------          --------------  --------------  --------------  --------------  --------------  --------------  --------------  --------------  --------------  --------------
1               0:00:00.000     0:05:00.039     14 933 kbps     26 582 kbps     00:03:11.200    21 087 kbps     00:03:11.200    18 642 kbps     00:03:06.120    74 656 bytes    524 133 bytes   00:00:48.519
2               0:05:00.039     0:04:57.640     14 855 kbps     32 427 kbps     00:06:38.760    17 518 kbps     00:06:38.760    16 429 kbps     00:06:38.760    74 277 bytes    672 730 bytes   00:07:51.120
3               0:09:57.679     0:06:26.440     14 936 kbps     22 765 kbps     00:09:57.839    16 753 kbps     00:16:09.840    15 735 kbps     00:14:11.920    74 681 bytes    450 574 bytes   00:14:31.320
4               0:16:24.120     0:07:19.559     14 906 kbps     26 330 kbps     00:17:11.000    17 117 kbps     00:17:07.159    16 088 kbps     00:17:02.040    74 531 bytes    801 999 bytes   00:17:11.679
5               0:23:43.679     0:05:00.039     14 924 kbps     25 377 kbps     00:23:43.679    16 951 kbps     00:26:41.119    15 794 kbps     00:25:31.679    74 621 bytes    456 393 bytes   00:25:41.479
6               0:28:43.719     0:09:59.559     14 949 kbps     28 788 kbps     00:31:04.040    18 559 kbps     00:33:53.080    16 394 kbps     00:38:01.799    74 743 bytes    622 409 bytes   00:31:04.080
7               0:38:43.279     0:04:51.559     14 938 kbps     25 130 kbps     00:38:43.439    16 749 kbps     00:41:38.640    15 815 kbps     00:38:43.359    74 690 bytes    485 785 bytes   00:40:15.640
8               0:43:34.839     0:10:21.799     14 909 kbps     31 525 kbps     00:51:00.279    18 389 kbps     00:51:33.719    16 923 kbps     00:51:18.200    74 544 bytes    643 578 bytes   00:44:29.759
9               0:53:56.639     0:06:42.840     14 739 kbps     25 133 kbps     00:53:56.999    18 279 kbps     00:53:56.799    16 332 kbps     00:54:08.159    73 710 bytes    331 391 bytes   00:53:57.999
10              1:00:39.479     0:08:06.040     18 065 kbps     35 494 kbps     01:07:28.240    28 424 kbps     01:05:01.759    27 527 kbps     01:05:01.559    90 341 bytes    616 208 bytes   01:05:46.360

STREAM DIAGNOSTICS:

File            PID             Type            Codec           Language                Seconds                 Bitrate                 Bytes           Packets
----            ---             ----            -----           --------                --------------          --------------          -------------   -----
00018.M2TS      4113 (0x1011)   0x1B            AVC                                     299,840                 14 939                  559 923 183     3 051 113
00018.M2TS      4352 (0x1100)   0x81            AC3             nld (Dutch)             299,840                 448                     16 800 000      93 750
00012.M2TS      4113 (0x1011)   0x1B            AVC                                     297,440                 14 868                  552 804 087     3 012 429
00012.M2TS      4352 (0x1100)   0x81            AC3             nld (Dutch)             297,440                 450                     16 740 864      93 420
00016.M2TS      4113 (0x1011)   0x1B            AVC                                     386,240                 14 944                  721 479 431     3 931 460
00016.M2TS      4352 (0x1100)   0x81            AC3             nld (Dutch)             386,240                 448                     21 641 984      120 770
00014.M2TS      4113 (0x1011)   0x1B            AVC                                     439,360                 14 914                  819 075 469     4 463 400
00014.M2TS      4352 (0x1100)   0x81            AC3             nld (Dutch)             439,360                 448                     24 609 536      137 330
00010.M2TS      4113 (0x1011)   0x1B            AVC                                     299,840                 14 934                  559 732 176     3 050 088
00010.M2TS      4352 (0x1100)   0x81            AC3             nld (Dutch)             299,840                 448                     16 800 000      93 750
00011.M2TS      4113 (0x1011)   0x1B            AVC                                     599,360                 14 953                  1 120 289 355   6 104 715
00011.M2TS      4352 (0x1100)   0x81            AC3             nld (Dutch)             599,360                 448                     33 574 912      187 360
00015.M2TS      4113 (0x1011)   0x1B            AVC                                     291,360                 14 948                  544 419 784     2 966 624
00015.M2TS      4352 (0x1100)   0x81            AC3             nld (Dutch)             291,360                 448                     16 323 328      91 090
00013.M2TS      4113 (0x1011)   0x1B            AVC                                     621,600                 14 913                  1 158 756 974   6 314 376
00013.M2TS      4352 (0x1100)   0x81            AC3             nld (Dutch)             621,600                 448                     34 822 144      194 320
00009.M2TS      4113 (0x1011)   0x1B            AVC                                     402,760                 14 752                  742 679 607     4 042 334
00009.M2TS      4352 (0x1100)   0x81            AC3             nld (Dutch)             402,760                 447                     22 503 936      125 580
00017.M2TS      4113 (0x1011)   0x1B            AVC                                     485,960                 18 069                  1 097 604 991   5 972 554
00017.M2TS      4352 (0x1100)   0x81            AC3             nld (Dutch)             485,960                 448                     27 218 688      151 890[/code]
<---- END FORUMS PASTE ---->

QUICK SUMMARY:

Disc Title: Decibel 2010 - The Live Registration
Disc Size: 22 071 717 248 bytes
Protection: AACS
BD-Java: No
Playlist: 00002.MPLS
Size: 8 512 187 520 bytes
Length: 1:08:45
Total Bitrate: 16,51 Mbps
Video: MPEG-4 AVC Video / 15273 kbps / 1080i / 25 fps / 16:9 / Main Profile 4.0
Audio: Dutch / Dolby Digital Audio / 5.1 / 48 kHz / 448 kbps / DN -4dB

********************
PLAYLIST: 00000.MPLS
********************

<--- BEGIN FORUMS PASTE --->
[code]Total   Video
Title                                                           Codec   Length  Movie Size      Disc Size       Bitrate Bitrate Main Audio Track                          Secondary Audio Track
-----                                                           ------  ------- --------------  --------------  ------- ------- ------------------                        ---------------------
00000.MPLS                                                      AVC     0:01:06 95 600 640      22 071 717 248  11,46   10,70   DD AC3 2.0 192Kbps[/code]
[code]DISC INFO:

Disc Title:     Decibel 2010 - The Live Registration
Disc Size:      22 071 717 248 bytes
Protection:     AACS
BD-Java:        No
BDInfo:         0.5.6

PLAYLIST REPORT:

Name:                   00000.MPLS
Length:                 0:01:06 (h:m:s)
Size:                   95 600 640 bytes
Total Bitrate:          11,46 Mbps

VIDEO:

Codec                   Bitrate             Description
-----                   -------             -----------
MPEG-4 AVC Video        10699 kbps          1080i / 25 fps / 16:9 / Main Profile 4.0

AUDIO:

Codec                           Language        Bitrate         Description
-----                           --------        -------         -----------
Dolby Digital Audio             Dutch           192 kbps        2.0 / 48 kHz / 192 kbps / DN -4dB

FILES:

Name            Time In         Length          Size            Total Bitrate
----            -------         ------          ----            -------------
00000.M2TS      0:00:00.000     0:00:10.120     6 230 016       4 925
00002.M2TS      0:00:10.120     0:00:15.080     14 131 200      7 497
00001.M2TS      0:00:25.200     0:00:14.759     23 212 032      12 581
00003.M2TS      0:00:39.960     0:00:26.759     52 027 392      15 554

CHAPTERS:

Number          Time In         Length          Avg Video Rate  Max 1-Sec Rate  Max 1-Sec Time  Max 5-Sec Rate  Max 5-Sec Time  Max 10Sec Rate  Max 10Sec Time  Avg Frame Size  Max Frame Size  Max Frame Time
------          -------         ------          --------------  --------------  --------------  --------------  --------------  --------------  --------------  --------------  --------------  --------------
1               0:00:00.000     0:01:06.720     10 699 kbps     27 890 kbps     00:00:40.120    16 841 kbps     00:00:40.120    15 679 kbps     00:00:55.480    53 496 bytes    455 253 bytes   00:01:05.440

STREAM DIAGNOSTICS:

File            PID             Type            Codec           Language                Seconds                 Bitrate                 Bytes           Packets
----            ---             ----            -----           --------                --------------          --------------          -------------   -----
00000.M2TS      4113 (0x1011)   0x1B            AVC                                     9,920                   4 719                   5 851 908       32 098
00002.M2TS      4113 (0x1011)   0x1B            AVC                                     14,880                  6 956                   12 937 932      70 712
00002.M2TS      4352 (0x1100)   0x81            AC3             nld (Dutch)             14,880                  195                     362 496         2 360
00001.M2TS      4113 (0x1011)   0x1B            AVC                                     14,560                  11 896                  21 650 801      118 059
00001.M2TS      4352 (0x1100)   0x81            AC3             nld (Dutch)             14,560                  195                     354 048         2 305
00003.M2TS      4113 (0x1011)   0x1B            AVC                                     26,560                  14 696                  48 790 221      265 879
00003.M2TS      4352 (0x1100)   0x81            AC3             nld (Dutch)             26,560                  193                     641 280         4 175[/code]
<---- END FORUMS PASTE ---->

QUICK SUMMARY:

Disc Title: Decibel 2010 - The Live Registration
Disc Size: 22 071 717 248 bytes
Protection: AACS
BD-Java: No
Playlist: 00000.MPLS
Size: 95 600 640 bytes
Length: 0:01:06
Total Bitrate: 11,46 Mbps
Video: MPEG-4 AVC Video / 10699 kbps / 1080i / 25 fps / 16:9 / Main Profile 4.0
Audio: Dutch / Dolby Digital Audio / 2.0 / 48 kHz / 192 kbps / DN -4dB


Трекер:  [ 29-Июл-2011 16:26 ]

  

Скачать .torrent

Размер .torrent файла 107 KB


Размер: 20.56 GB
Хэш (hash) релиза: c0e097eb772dac932361168917d299556b94f403

Еще никто не оставлял запись к записи скачать торрент Decibel 2010 - The Live Registration . Будь первым!

!Обратная связь