Vice Principals | Il bosco di Mila | Hell's Kitchen

Скачать через торрент [VIDEO] Шпионы по соседству Keeping Up with the Joneses бесплатно русская версия torrent активатор

Статистика раздачи
Размер:  2.37 GB   |    Зарегистрирован:  1 год 4 месяца   |    .torrent скачан:  44 раза   |   
Раздают:  1  
   
загрузка...
 
Автор Сообщение

Galfimbul

avatar Galfimbul


Шпионы по соседству / Keeping Up with the Joneses
«Лицензия на мокруху. Лицензия на бытовуху»
Премьера: 19 октября 2016
Оригинальное название: Keeping Up with the Joneses
Страна: США
Жанр: боевик, комедия
Возраст: 16+

Режиссер: Грег Моттола / Greg Mottola

В ролях: Зак Галифианакис, Айла Фишер, Джон Хэмм, Галь Гадот, Пэттон Освальт, Минг Жао, Мэтт Уолш, Мэрибет Монро, Майкл Лью, Кевин Данн

Описание: Супружеская пара из пригорода оказывается втянутой в международный шпионский заговор, когда обнаруживает, что их, казалось бы, идеальные новые соседи являются правительственными агентами.

Продолжительность: 01:45:20
Перевод: Дублированный [Лицензия]
Оригинальная дорожка: есть

Автор рипа:

Качество видео: BDRip Исходник: Blu-Ray Remux (1080p) Формат: mp4
Видео кодек: MPEG-4 AVC Аудио кодек: AAC
Видео: 1280x534 (2.40:1) at 23.976 fps, AVC at 2 950 kbps avg, 0.180 bit/pixel
Аудио №1 Rus: 48.0 KHz, AAC, 2 ch, 128.0 Kbps
Аудио №2 Eng: 48.0 KHz, AAC, 2 ch, 128.0 Kbps
Субтитры: русские (форсированные, полные), английские (полные)
Навигация по главам: есть
Размер: 2.37 GiB
avs [info]: 1280x534p 1:1 @ 24000/1001 fps (cfr)
x264 [info]: using SAR=1/1
x264 [info]: using cpu capabilities: MMX2 SSE2Fast SSSE3 Cache64
x264 [info]: profile High, level 4.1
x264 [info]: frame I:1738 Avg QP:16.58 size:117536
x264 [info]: frame P:29865 Avg QP:19.46 size: 30195
x264 [info]: frame B:119933 Avg QP:21.69 size: 10210
x264 [info]: consecutive B-frames: 2.0% 1.1% 5.0% 11.5% 15.6% 56.5% 8.2%
x264 [info]: mb I I16..4: 4.1% 79.2% 16.7%
x264 [info]: mb P I16..4: 1.0% 8.6% 1.1% P16..4: 42.3% 25.4% 15.3% 0.0% 0.0% skip: 6.4%
x264 [info]: mb B I16..4: 0.1% 1.0% 0.1% B16..8: 45.3% 8.6% 1.9% direct: 4.9% skip:38.1% L0:45.0% L1:47.9% BI: 7.1%
x264 [info]: 8x8 transform intra:81.5% inter:66.2%
x264 [info]: coded y,uvDC,uvAC intra: 85.9% 91.4% 72.7% inter: 25.1% 31.4% 5.4%
x264 [info]: i16 v,h,dc,p: 39% 17% 7% 37%
x264 [info]: i8 v,h,dc,ddl,ddr,vr,hd,vl,hu: 20% 14% 23% 5% 7% 8% 7% 8% 8%
x264 [info]: i4 v,h,dc,ddl,ddr,vr,hd,vl,hu: 25% 16% 12% 6% 9% 9% 9% 7% 6%
x264 [info]: i8c dc,h,v,p: 52% 17% 20% 11%
x264 [info]: Weighted P-Frames: Y:3.6% UV:1.4%
x264 [info]: ref P L0: 46.3% 12.0% 20.0% 6.6% 6.4% 4.1% 4.2% 0.3% 0.0%
x264 [info]: ref B L0: 73.4% 13.6% 6.9% 3.5% 1.8% 0.7%
x264 [info]: ref B L1: 91.7% 8.3%
x264 [info]: kb/s:2949.96
encoded 151536 frames, 2.53 fps, 2949.96 kb/s
GeneralFormat : MPEG-4Format profile : Base MediaCodec ID : isom (isom)File size : 2.37 GiBDuration : 1 h 45 minOverall bit rate mode : VariableOverall bit rate : 3 218 kb/sMovie name : Шпионы по соседству | KinoGadgetPerformer : Грег МоттолаDirector : Грег МоттолаActor : Зак Галифианакис / Айла Фишер / Джон Хэмм / Галь Гадот / Пэттон Освальт / Минг Жао / Мэтт Уолш / Мэрибет Монро / Майкл Лью / Кевин ДаннScreenplay by : Майкл ЛеСьерProducer : Лори МакДональд / Уолтер Ф. Паркс / Тимоти М. БорнGenre : Action, ComedyContentType : Short FilmRecorded date : 2016Encoded date : UTC 2017-03-13 12:50:11Tagged date : UTC 2017-03-13 12:57:00Cover : YesContentRating : mpaa|PG-13|300|LongDescription : Супружеская пара из пригорода оказывается втянутой в международный шпионский заговор, когда обнаруживает, что их, казалось бы, идеальные новые соседи являются правительственными агентами.HDVideo : Yes

VideoID : 1Format : AVCFormat/Info : Advanced Video CodecFormat profile : [email protected] settings, CABAC : YesFormat settings, ReFrames : 7 framesCodec ID : avc1Codec ID/Info : Advanced Video CodingDuration : 1 h 45 minBit rate : 2 950 kb/sMaximum bit rate : 13.1 Mb/sWidth : 1 280 pixelsHeight : 534 pixelsDisplay aspect ratio : 2.40:1Frame rate mode : ConstantFrame rate : 23.976 (24000/1001) FPSColor space : YUVChroma subsampling : 4:2:0Bit depth : 8 bitsScan type : ProgressiveBits/(Pixel*Frame) : 0.180Stream size : 2.17 GiB (92%)Writing library : x264 core 148 r2638 7599210Encoding settings : cabac=1 / ref=7 / deblock=1:-2:-1 / analyse=0x3:0x113 / me=umh / subme=7 / psy=1 / psy_rd=1.00:0.00 / mixed_ref=1 / me_range=32 / chroma_me=1 / trellis=2 / 8x8dct=1 / cqm=0 / deadzone=21,11 / fast_pskip=0 / chroma_qp_offset=-2 / threads=3 / lookahead_threads=1 / sliced_threads=0 / nr=0 / decimate=1 / interlaced=0 / bluray_compat=0 / constrained_intra=0 / bframes=6 / b_pyramid=2 / b_adapt=2 / b_bias=0 / direct=1 / weightb=1 / open_gop=0 / weightp=2 / keyint=250 / keyint_min=25 / scenecut=40 / intra_refresh=0 / rc_lookahead=60 / rc=crf / mbtree=1 / crf=19.0 / qcomp=0.60 / qpmin=0 / qpmax=69 / qpstep=4 / vbv_maxrate=62500 / vbv_bufsize=78125 / crf_max=0.0 / nal_hrd=none / filler=0 / ip_ratio=1.40 / aq=1:1.00Encoded date : UTC 2017-03-12 21:47:16Tagged date : UTC 2017-03-13 12:50:55

Audio #1ID : 2Format : AACFormat/Info : Advanced Audio CodecFormat profile : LCCodec ID : 40Duration : 1 h 45 minBit rate mode : VariableBit rate : 128 kb/sMaximum bit rate : 135 kb/sChannel(s) : 2 channelsChannel positions : Front: L RSampling rate : 48.0 kHzFrame rate : 46.875 FPS (1024 spf)Compression mode : LossyStream size : 96.4 MiB (4%)Title : Dub [License]Language : RussianEncoded date : UTC 2017-03-13 09:01:05Tagged date : UTC 2017-03-13 12:50:55

Audio #2ID : 3Format : AACFormat/Info : Advanced Audio CodecFormat profile : LCCodec ID : 40Duration : 1 h 45 minBit rate mode : VariableBit rate : 128 kb/sMaximum bit rate : 134 kb/sChannel(s) : 2 channelsChannel positions : Front: L RSampling rate : 48.0 kHzFrame rate : 46.875 FPS (1024 spf)Compression mode : LossyStream size : 96.4 MiB (4%)Title : OriginalLanguage : EnglishEncoded date : UTC 2017-03-13 09:29:43Tagged date : UTC 2017-03-13 12:50:55

Text #1ID : 4Format : Timed TextCodec ID : tx3gDuration : 1 h 45 minBit rate mode : VariableBit rate : 2 b/sStream size : 1.18 KiB (0%)Title : ForcedLanguage : RussianForced : NoEncoded date : UTC 2017-03-13 12:50:54Tagged date : UTC 2017-03-13 12:50:55

Text #2ID : 5Format : Timed TextCodec ID : tx3gDuration : 1 h 45 minBit rate mode : VariableBit rate : 141 b/sStream size : 108 KiB (0%)Title : FullLanguage : RussianForced : NoEncoded date : UTC 2017-03-13 12:50:54Tagged date : UTC 2017-03-13 12:50:55

Text #3ID : 6Format : Timed TextCodec ID : tx3gDuration : 1 h 37 minBit rate mode : VariableBit rate : 101 b/sStream size : 72.3 KiB (0%)Title : FullLanguage : EnglishForced : NoEncoded date : UTC 2017-03-13 12:50:54Tagged date : UTC 2017-03-13 12:50:55

Menu00:00:00.000 : 00:00:00.00000:03:43.473 : 00:03:43.47300:06:41.651 : 00:06:41.65100:09:55.845 : 00:09:55.84500:13:28.182 : 00:13:28.18200:17:06.025 : 00:17:06.02500:21:07.933 : 00:21:07.93300:26:02.311 : 00:26:02.31100:30:07.514 : 00:30:07.51400:33:56.743 : 00:33:56.74300:37:43.761 : 00:37:43.76100:40:59.457 : 00:40:59.45700:45:35.149 : 00:45:35.14900:49:00.312 : 00:49:00.31200:52:35.152 : 00:52:35.15200:55:59.189 : 00:55:59.18901:00:50.230 : 01:00:50.23001:04:33.244 : 01:04:33.24401:08:47.665 : 01:08:47.66501:12:04.654 : 01:12:04.65401:15:58.554 : 01:15:58.55401:19:31.809 : 01:19:31.80901:22:46.545 : 01:22:46.54501:25:43.972 : 01:25:43.97201:29:02.295 : 01:29:02.29501:31:44.874 : 01:31:44.87401:34:18.528 : 01:34:18.52801:37:32.680 : 01:37:32.680


Трекер:  [ 13-Мар-2017 15:30 ]

  

Скачать .torrent

Размер .torrent файла 12 KB


Размер: 2.37 GB
Хэш (hash) релиза: 85aa03612b82b22b3909a92d57374385afbfc08a

Еще никто не оставлял запись к записи скачать торрент [VIDEO] Шпионы по соседству Keeping Up with the Joneses . Будь первым!

!Обратная связь