PTFiles | PTF | General | 2018 Review | Dream Team S2 Ep.320 | Marvel's Agent Carter

Скачать через торрент [VIDEO] Афера под прикрытием The Infiltrator бесплатно русская версия torrent активатор

Статистика раздачи
Размер:  2.65 GB   |    Зарегистрирован:  1 год 4 месяца   |    .torrent скачан:  37 раз   |   
Раздают:  1  
   
загрузка...
 
Автор Сообщение

Galfimbul

avatar Galfimbul


Афера под прикрытием / The Infiltrator
«The true story of one man against the biggest drug cartel in history»
Премьера: 6 июля 2016
Оригинальное название: The Infiltrator
Страна: Великобритания
Жанр: триллер, драма, криминал, биография
Возраст: 16+

Режиссер: Брэд Фурман / Brad Furman

В ролях: Брайан Крэнстон, Лиэнн Бест, Дэниэл Мейс, Том Вон-Лолор, Ниал Хэйес, Лара Дэкаро, Джульетт Обри, Олимпия Дукакис, Эми Райан, Джон Легуизамо

Описание: Федеральный агент Боб Мейзур, специалист по внедрению в преступные группировки, ставит себе целью раскрыть схему отмывания денег наркокартеля Пабло Эскобара. В одной команде со вспыльчивым оперативником Эмиром Абреу, а также начинающим агентом Кэти Эртс, исполняющей роль подставной невесты Боба, ему предстоит провернуть самую рискованную операцию под прикрытием в истории.

Продолжительность: 02:06:43
Перевод: Дублированный [Лицензия]
Оригинальная дорожка: нет

Автор рипа:

Качество видео: BDRip Исходник: Blu-Ray Remux (1080p) Формат: mp4
Видео кодек: MPEG-4 AVC Аудио кодек: AAC
Видео: 1280x720 (16:9) at 24.000 fps, AVC at 2 855 kbps avg, 0.129 bit/pixel
Аудио №1 Rus: 48.0 KHz, AAC, 2 ch, 128.0 Kbps
Субтитры: нет
Навигация по главам: нет
Размер: 2.65 GiB
avs [info]: 1280x720p 1:1 @ 24/1 fps (cfr)
x264 [info]: using SAR=1/1
x264 [info]: using cpu capabilities: MMX2 SSE2Fast SSSE3 Cache64
x264 [info]: profile High, level 4.1
x264 [info]: frame I:1447 Avg QP:19.65 size: 89031
x264 [info]: frame P:38073 Avg QP:22.77 size: 28610
x264 [info]: frame B:142969 Avg QP:24.75 size: 10458
x264 [info]: consecutive B-frames: 1.7% 2.0% 6.2% 20.6% 19.8% 31.5% 14.7% 3.5%
x264 [info]: mb I I16..4: 8.8% 79.5% 11.6%
x264 [info]: mb P I16..4: 3.2% 12.6% 1.0% P16..4: 46.9% 17.5% 10.3% 0.0% 0.0% skip: 8.5%
x264 [info]: mb B I16..4: 0.2% 1.1% 0.1% B16..8: 40.5% 6.1% 1.2% direct: 5.4% skip:45.4% L0:44.4% L1:50.5% BI: 5.1%
x264 [info]: 8x8 transform intra:76.3% inter:72.5%
x264 [info]: coded y,uvDC,uvAC intra: 64.0% 78.0% 43.4% inter: 19.2% 25.6% 3.3%
x264 [info]: i16 v,h,dc,p: 34% 20% 6% 40%
x264 [info]: i8 v,h,dc,ddl,ddr,vr,hd,vl,hu: 17% 13% 24% 6% 8% 9% 8% 8% 7%
x264 [info]: i4 v,h,dc,ddl,ddr,vr,hd,vl,hu: 22% 21% 11% 6% 10% 10% 8% 7% 5%
x264 [info]: i8c dc,h,v,p: 49% 18% 21% 12%
x264 [info]: Weighted P-Frames: Y:4.3% UV:2.8%
x264 [info]: ref P L0: 46.2% 11.6% 19.4% 6.1% 5.5% 3.6% 3.5% 1.8% 2.0% 0.2% 0.0%
x264 [info]: ref B L0: 76.5% 10.7% 5.3% 2.7% 1.9% 1.6% 0.9% 0.3%
x264 [info]: ref B L1: 93.4% 6.6%
x264 [info]: kb/s:2854.65
encoded 182489 frames, 1.90 fps, 2854.65 kb/s
GeneralFormat : MPEG-4Format profile : Base MediaCodec ID : isom (isom/avc1/iso6)File size : 2.65 GiBDuration : 2 h 6 minOverall bit rate mode : VariableOverall bit rate : 2 990 kb/sMovie name : Афера под прикрытием | KinoGadgetPerformer : Брэд ФурманDirector : Брэд ФурманActor : Брайан Крэнстон / Лиэнн Бест / Дэниэл Мейс / Том Вон-Лолор / Ниал Хэйес / Лара Дэкаро / Джульетт Обри / Олимпия Дукакис / Эми Райан / Джон ЛегуизамоScreenplay by : Эллен Браун Фурман / Роберт МазурProducer : Пол М. Бреннан / Брэд Фурман / Мириам СигалGenre : Crime, Drama, ThrillerContentType : Short FilmRecorded date : 2016Encoded date : UTC 2017-03-11 12:57:33Tagged date : UTC 2017-03-13 05:22:38Cover : YesContentRating : mpaa|R|400|LongDescription : Федеральный агент Боб Мейзур, специалист по внедрению в преступные группировки, ставит себе целью раскрыть схему отмывания денег наркокартеля Пабло Эскобара. В одной команде со вспыльчивым оперативником Эмиром Абреу, а также начинающим агентом Кэти Эртс, исполняющей роль подставной невесты Боба, ему предстоит провернуть самую рискованную операцию под прикрытием в истории.HDVideo : Yes

VideoID : 1Format : AVCFormat/Info : Advanced Video CodecFormat profile : [email protected] settings, CABAC : YesFormat settings, ReFrames : 9 framesCodec ID : avc1Codec ID/Info : Advanced Video CodingDuration : 2 h 6 minBit rate : 2 855 kb/sMaximum bit rate : 20.7 Mb/sWidth : 1 280 pixelsHeight : 720 pixelsDisplay aspect ratio : 16:9Frame rate mode : ConstantFrame rate : 24.000 FPSColor space : YUVChroma subsampling : 4:2:0Bit depth : 8 bitsScan type : ProgressiveBits/(Pixel*Frame) : 0.129Stream size : 2.53 GiB (95%)Writing library : x264 core 148 r2638 7599210Encoding settings : cabac=1 / ref=9 / deblock=1:-2:-1 / analyse=0x3:0x113 / me=umh / subme=7 / psy=1 / psy_rd=1.00:0.00 / mixed_ref=1 / me_range=32 / chroma_me=1 / trellis=2 / 8x8dct=1 / cqm=0 / deadzone=21,11 / fast_pskip=0 / chroma_qp_offset=-2 / threads=3 / lookahead_threads=1 / sliced_threads=0 / nr=0 / decimate=1 / interlaced=0 / bluray_compat=0 / constrained_intra=0 / bframes=7 / b_pyramid=2 / b_adapt=2 / b_bias=0 / direct=1 / weightb=1 / open_gop=0 / weightp=2 / keyint=250 / keyint_min=25 / scenecut=40 / intra_refresh=0 / rc_lookahead=60 / rc=crf / mbtree=1 / crf=22.0 / qcomp=0.60 / qpmin=0 / qpmax=69 / qpstep=4 / vbv_maxrate=62500 / vbv_bufsize=78125 / crf_max=0.0 / nal_hrd=none / filler=0 / ip_ratio=1.40 / aq=1:1.00Encoded date : UTC 2017-03-11 12:57:33Tagged date : UTC 2017-03-11 12:58:56

AudioID : 2Format : AACFormat/Info : Advanced Audio CodecFormat profile : LCCodec ID : 40Duration : 2 h 6 minBit rate mode : VariableBit rate : 128 kb/sMaximum bit rate : 135 kb/sChannel(s) : 2 channelsChannel positions : Front: L RSampling rate : 48.0 kHzFrame rate : 46.875 FPS (1024 spf)Compression mode : LossyStream size : 116 MiB (4%)Title : Dub [License]Language : RussianEncoded date : UTC 2017-03-10 10:11:54Tagged date : UTC 2017-03-11 12:58:56


Трекер:  [ 13-Мар-2017 08:00 ]

  

Скачать .torrent

Размер .torrent файла 13 KB


Размер: 2.65 GB
Хэш (hash) релиза: 0ef9f2ddbd66a5d6c741ded8b3709219a82fff70

Еще никто не оставлял запись к записи скачать торрент [VIDEO] Афера под прикрытием The Infiltrator . Будь первым!

!Обратная связь