Pfandhaus – Louisiana | Learn Laravel Forge | Prince of Persia The Sands of Time (2010) 1080p BRRip x265 HEVC 10bit 5.1 c ...

Скачать через торрент [VIDEO] Высокий блондин в черном ботинке: Дилогия Le grand blond avec une chaussure noire: Dilogy бесплатно русская версия torrent активатор

Статистика раздачи
Размер:  2.79 GB   |    Зарегистрирован:  1 год 4 месяца   |    .torrent скачан:  32 раза   |   
Раздают:  1  
   
загрузка...
 
Автор Сообщение

Galfimbul

avatar Galfimbul


Высокий блондин в черном ботинке: Дилогия / Le grand blond avec une chaussure noire: Dilogy

Высокий блондин в черном ботинке / Le grand blond avec une chaussure noire

Год выпуска: 1972
Страна: Франция
Жанр: комедия, детектив
Продолжительность: 01:29:33
Перевод №1: Русский Профессиональный (полное дублирование) СССР
Перевод №2: Русский Профессиональный (двухголосый, закадровый) Союз-Видео
Перевод №3: Украинский Профессиональный (двухголосый, закадровый) 2+2
Перевод №4: Украинский Профессиональный (многоголосый, закадровый) К1
Оригинальная дорожка: Есть
Cубтитры: английские (полные)
Режиссер: Ив Робер / Yves Robert
В ролях: Пьер Ришар, Бернар Блие, Жан Рошфор, Мирей Дарк, Колетт Кастель, Жан Об, Робер Кастель, Жан Содрэ, Роже Качча, Морис Барье и другие .
Описание: Рассеянного скрипача-виртуоза Франсуа Перрена принимают за секретного суперагента. Высокий блондин оказывается крепким орешком. Он с легкостью избегает всех опасностей, даже не подозревая о них.
Релиз группы
<div class="q-wrap">
<div class="q-head"><b>Цитата:</b></div>
<div class="q">** - Основной перевод - Русский Дубляж (времен СССР). На места, где не было перевода в дубляже, наложены друхголосые вставки.

Качество: BDRip / рип с BDRemux 1080p
Формат: MP4
Видео кодек: H.264
Аудио кодек: AAC
Видео: 896x540 AR:1.66 1740 kbps 24.000 fps
Аудио №1: [Russian] 2ch 48 kHz 128 kbps - Профессиональный (полное дублирование) СССР
Аудио №2: [Russian] 2ch 48 kHz 128 kbps - Профессиональный (двухголосый, закадровый) Союз-Видео
Аудио №3: [Ukrainian] 2ch 48 kHz 128 kbps - Профессиональный (двухголосый, закадровый) 2+2
Аудио №4: [Ukrainian] 2ch 48 kHz 128 kbps - Профессиональный (многоголосый, закадровый) К1
Аудио №5: [French] 2ch 48 kHz 128 kbps - Оригинал
avs [info]: 896x540p 1:1 @ 24/1 fps (cfr)
x264 [info]: using SAR=1/1
x264 [info]: using cpu capabilities: MMX2 SSE2Fast SSSE3 SSE4.2 AVX FMA3 AVX2 LZCNT BMI2
x264 [info]: profile High, level 4.1

x264 [info]: frame I:890 Avg QP:17.78 size: 54377
x264 [info]: frame P:26919 Avg QP:21.43 size: 17963
x264 [info]: frame B:101132 Avg QP:22.47 size: 6289
x264 [info]: consecutive B-frames: 1.9% 2.7% 7.5% 14.6% 14.5% 45.5% 6.3% 1.9% 4.0% 1.1%
x264 [info]: mb I I16..4: 5.6% 76.7% 17.7%
x264 [info]: mb P I16..4: 0.8% 6.8% 1.0% P16..4: 34.0% 37.2% 11.5% 0.0% 0.0% skip: 8.6%
x264 [info]: mb B I16..4: 0.1% 0.6% 0.1% B16..8: 34.9% 16.5% 2.6% direct: 4.9% skip:40.4% L0:45.0% L1:45.4% BI: 9.7%
x264 [info]: 8x8 transform intra:78.4% inter:61.5%
x264 [info]: direct mvs spatial:98.5% temporal:1.5%
x264 [info]: coded y,uvDC,uvAC intra: 81.3% 74.8% 47.0% inter: 24.4% 17.9% 4.5%
x264 [info]: i16 v,h,dc,p: 27% 20% 9% 44%
x264 [info]: i8 v,h,dc,ddl,ddr,vr,hd,vl,hu: 10% 7% 9% 10% 14% 14% 13% 12% 12%
x264 [info]: i4 v,h,dc,ddl,ddr,vr,hd,vl,hu: 15% 9% 8% 8% 13% 14% 12% 10% 11%
x264 [info]: i8c dc,h,v,p: 39% 25% 20% 15%
x264 [info]: Weighted P-Frames: Y:7.9% UV:2.7%
x264 [info]: ref P L0: 44.1% 11.4% 17.2% 6.6% 5.7% 4.3% 4.0% 2.2% 2.2% 2.0% 0.2% 0.0%
x264 [info]: ref B L0: 70.6% 11.7% 6.5% 3.3% 2.6% 2.2% 1.9% 0.8% 0.3%
x264 [info]: ref B L1: 93.9% 6.1%
x264 [info]: kb/s:1739.17

encoded 128941 frames, 12.89 fps, 1739.17 kb/s
GeneralComplete name : D:\Torrents\The tall blond Dilogy.1972-1974.BDRip.x264.960x\Le grand blond avec une chaussure noire.1972.BDRip.x264.960x.rip by Frost O.S.mp4Format : MPEG-4Format profile : Base MediaCodec ID : isom (isom/avc1/iso2)File size : 1.50 GiBDuration : 1 h 29 minOverall bit rate mode : VariableOverall bit rate : 2 399 kb/sMovie name : Le grand blond avec une chaussure noire 1972 BDRip x264 960x rip by Frost O SDirector : Ив Робер / Yves RobertActor : Пьер Ришар / Бернар Блие / Жан Рошфор / Мирей Дарк / Колетт Кастель / Жан Об / Робер Кастель / Жан Содрэ / Роже Качча / Морис БарьеGenre : ComedyContentType : Short FilmEncoded date : UTC 2017-03-12 18:02:29Tagged date : UTC 2017-03-12 18:10:20Writing application : MkvToMp4 version: 0.224 (x64)Comment : rip by Frost O.SLongDescription : Рассеянного скрипача-виртуоза Франсуа Перрена принимают за секретного суперагента. Высокий блондин оказывается крепким орешком. Он с легкостью избегает всех опасностей, даже не подозревая о них.

VideoID : 1Format : AVCFormat/Info : Advanced Video CodecFormat profile : [email protected] settings, CABAC : YesFormat settings, ReFrames : 10 framesCodec ID : avc1Codec ID/Info : Advanced Video CodingDuration : 1 h 29 minBit rate : 1 740 kb/sMaximum bit rate : 4 746 kb/sWidth : 896 pixelsHeight : 540 pixelsDisplay aspect ratio : 5:3Frame rate mode : ConstantFrame rate : 24.000 FPSColor space : YUVChroma subsampling : 4:2:0Bit depth : 8 bitsScan type : ProgressiveBits/(Pixel*Frame) : 0.150Stream size : 1.09 GiB (72%)Writing library : x264 core 148 r2744 b97ae06Encoding settings : cabac=1 / ref=10 / deblock=1:-2:-2 / analyse=0x3:0x113 / me=umh / subme=11 / psy=1 / psy_rd=1.10:0.00 / mixed_ref=1 / me_range=32 / chroma_me=1 / trellis=2 / 8x8dct=1 / cqm=0 / deadzone=21,11 / fast_pskip=0 / chroma_qp_offset=-2 / threads=6 / lookahead_threads=1 / sliced_threads=0 / nr=0 / decimate=0 / interlaced=0 / bluray_compat=0 / constrained_intra=0 / bframes=9 / b_pyramid=2 / b_adapt=2 / b_bias=0 / direct=3 / weightb=1 / open_gop=0 / weightp=2 / keyint=250 / keyint_min=24 / scenecut=40 / intra_refresh=0 / rc=2pass / mbtree=0 / bitrate=1740 / ratetol=1.0 / qcomp=0.60 / qpmin=0 / qpmax=69 / qpstep=4 / cplxblur=20.0 / qblur=0.5 / ip_ratio=1.40 / pb_ratio=1.30 / aq=2:1.00Language : EnglishEncoded date : UTC 2017-03-12 18:02:29Tagged date : UTC 2017-03-12 18:06:26Color range : LimitedColor primaries : BT.709Transfer characteristics : BT.709Matrix coefficients : BT.709

Audio #1ID : 2Format : AACFormat/Info : Advanced Audio CodecFormat profile : LCCodec ID : 40Duration : 1 h 29 minBit rate mode : VariableBit rate : 128 kb/sMaximum bit rate : 135 kb/sChannel(s) : 2 channelsChannel positions : Front: L RSampling rate : 48.0 kHzFrame rate : 46.875 FPS (1024 spf)Compression mode : LossyStream size : 82.0 MiB (5%)Title : Dub_ CCCP / Dub_ CCCPLanguage : RussianDefault : YesAlternate group : 1Encoded date : UTC 2017-03-12 18:05:21Tagged date : UTC 2017-03-12 18:06:26

Audio #2ID : 3Format : AACFormat/Info : Advanced Audio CodecFormat profile : LCCodec ID : 40Duration : 1 h 29 minBit rate mode : VariableBit rate : 128 kb/sMaximum bit rate : 134 kb/sChannel(s) : 2 channelsChannel positions : Front: L RSampling rate : 48.0 kHzFrame rate : 46.875 FPS (1024 spf)Compression mode : LossyStream size : 82.0 MiB (5%)Title : DVO_ Couz_Video / DVO_ Couz_VideoLanguage : RussianDefault : NoAlternate group : 1Encoded date : UTC 2017-03-12 18:05:52Tagged date : UTC 2017-03-12 18:06:26

Audio #3ID : 4Format : AACFormat/Info : Advanced Audio CodecFormat profile : LCCodec ID : 40Duration : 1 h 29 minBit rate mode : VariableBit rate : 128 kb/sMaximum bit rate : 135 kb/sChannel(s) : 2 channelsChannel positions : Front: L RSampling rate : 48.0 kHzFrame rate : 46.875 FPS (1024 spf)Compression mode : LossyStream size : 82.0 MiB (5%)Title : DVO_ 2_2 / DVO_ 2_2Language : UkrainianDefault : NoAlternate group : 1Encoded date : UTC 2017-03-12 18:06:02Tagged date : UTC 2017-03-12 18:06:26

Audio #4ID : 5Format : AACFormat/Info : Advanced Audio CodecFormat profile : LCCodec ID : 40Duration : 1 h 29 minBit rate mode : VariableBit rate : 128 kb/sMaximum bit rate : 134 kb/sChannel(s) : 2 channelsChannel positions : Front: L RSampling rate : 48.0 kHzFrame rate : 46.875 FPS (1024 spf)Compression mode : LossyStream size : 82.0 MiB (5%)Title : MVO_ K1 / MVO_ K1Language : UkrainianDefault : NoAlternate group : 1Encoded date : UTC 2017-03-12 18:06:10Tagged date : UTC 2017-03-12 18:06:26

Audio #5ID : 6Format : AACFormat/Info : Advanced Audio CodecFormat profile : LCCodec ID : 40Duration : 1 h 29 minBit rate mode : VariableBit rate : 128 kb/sMaximum bit rate : 135 kb/sChannel(s) : 2 channelsChannel positions : Front: L RSampling rate : 48.0 kHzFrame rate : 46.875 FPS (1024 spf)Compression mode : LossyStream size : 82.0 MiB (5%)Title : Original / OriginalLanguage : FrenchDefault : NoAlternate group : 1Encoded date : UTC 2017-03-12 18:06:17Tagged date : UTC 2017-03-12 18:06:26

TextID : 7Format : Timed TextMuxing mode : sbtlCodec ID : tx3gDuration : 1 h 29 minBit rate mode : VariableBit rate : 40 b/sStream size : 26.0 KiB (0%)Title : Full / FullLanguage : EnglishDefault : YesForced : NoAlternate group : 2Encoded date : UTC 2017-03-12 18:06:26Tagged date : UTC 2017-03-12 18:06:26
</div>
</div>
Возвращение высокого блондина/ The Return of the Tall Blond Man with One Black Shoe

Год выпуска: 1974
Страна: Франция
Жанр: комедия, детектив
Продолжительность: 01:21:05
Перевод №1: Русский Профессиональный (полное дублирование) СССР
Перевод №2: Русский Профессиональный (двухголосый, закадровый) Союз-Видео
Перевод №3: Украинский Профессиональный (двухголосый, закадровый) 2+2
Оригинальная дорожка: Есть
Cубтитры: английские (полные)
Режиссер: Ив Робер / Yves Robert
В ролях: Пьер Ришар, Жан Карме, Жан Рошфор, Мирей Дарк, Жан Буиз, Поль Ле Персон, Колетт Кастель, Анри Гибе, Эрве Санд, Жан Амос и другие .
Описание: Шпионские игры продолжаются. Спецслужбы не могут оставить Перрена в покое — новый министр нашёл досье на высокого блондина, заведённое Бернаром Миланом, и следуя подсказке капитана Камбрэ, подозревающего Тулуза в фарсе с высоким блондином и убийстве Милана, приказывает полковнику Тулузу представить ему «суперагента». Тот в смятении придумывает историю о том, что блондин совсем недавно погиб при выполнении спецоперации в тропиках, но министр требует привести тело на родину для захоронения с почестями. Тулуз посылает своих людей в Рио-де-Жанейро, где Перрен живёт с Кристин, чтобы убить его.

Блондин снова уходит от опасности, ни о чём не подозревая. Тогда Тулуз со своими агентами похищает Кристин, и теперь блондин вынужден выполнять его требования — приехать в Париж и разыграть из себя суперагента перед министром, что убедило бы его прекратить расследование убийства Милана. Министр намеревается послать «суперагента» на важное и очень опасное задание. Тулуз хочет избавиться от блондина, после того, как он сыграет свою роль, так как теперь он «слишком много знает». На помощь Перрену приходит его друг Морис…
Релиз группы
<div class="q-wrap">
<div class="q-head"><b>Цитата:</b></div>
<div class="q">** - Основной перевод - Русский Дубляж (времен СССР). На места, где не было перевода в дубляже, наложены друхголосые вставки.

Качество: BDRip / рип с BDRemux 1080p
Формат: MP4
Видео кодек: H.264
Аудио кодек: AAC
Видео: 896x540 AR:1.66 1740 kbps 24.000 fps
Аудио №1: [Russian] 2ch 48 kHz 128 kbps - Профессиональный (полное дублирование) СССР
Аудио №2: [Russian] 2ch 48 kHz 128 kbps - Профессиональный (двухголосый, закадровый) Союз-Видео
Аудио №3: [Ukrainian] 2ch 48 kHz 128 kbps - Профессиональный (двухголосый, закадровый) 2+2
Аудио №4: [French] 2ch 48 kHz 128 kbps - Оригинал
avs [info]: 896x540p 1:1 @ 24/1 fps (cfr)
x264 [info]: using SAR=1/1
x264 [info]: using cpu capabilities: MMX2 SSE2Fast SSSE3 SSE4.2 AVX FMA3 AVX2 LZCNT BMI2
x264 [info]: profile High, level 4.1

x264 [info]: frame I:921 Avg QP:16.21 size: 53679
x264 [info]: frame P:25406 Avg QP:19.78 size: 18990
x264 [info]: frame B:90433 Avg QP:21.08 size: 5814
x264 [info]: consecutive B-frames: 2.2% 3.1% 7.9% 18.5% 19.4% 37.0% 5.4% 1.8% 1.7% 3.0%
x264 [info]: mb I I16..4: 5.8% 77.0% 17.2%
x264 [info]: mb P I16..4: 0.7% 5.6% 0.9% P16..4: 34.8% 40.8% 12.7% 0.0% 0.0% skip: 4.5%
x264 [info]: mb B I16..4: 0.0% 0.4% 0.1% B16..8: 35.7% 18.8% 3.1% direct: 3.9% skip:38.0% L0:43.9% L1:46.1% BI:10.0%
x264 [info]: 8x8 transform intra:77.5% inter:60.6%
x264 [info]: direct mvs spatial:97.4% temporal:2.6%
x264 [info]: coded y,uvDC,uvAC intra: 84.1% 79.9% 55.2% inter: 22.7% 15.7% 4.9%
x264 [info]: i16 v,h,dc,p: 39% 19% 8% 34%
x264 [info]: i8 v,h,dc,ddl,ddr,vr,hd,vl,hu: 10% 7% 7% 10% 14% 14% 13% 12% 12%
x264 [info]: i4 v,h,dc,ddl,ddr,vr,hd,vl,hu: 13% 8% 6% 9% 14% 15% 13% 11% 11%
x264 [info]: i8c dc,h,v,p: 38% 27% 21% 15%
x264 [info]: Weighted P-Frames: Y:6.4% UV:2.2%
x264 [info]: ref P L0: 46.6% 11.0% 17.4% 6.6% 5.7% 4.1% 3.9% 2.1% 2.4% 0.2% 0.0%
x264 [info]: ref B L0: 75.3% 10.8% 5.6% 2.8% 2.1% 1.8% 1.1% 0.4%
x264 [info]: ref B L1: 95.0% 5.0%
x264 [info]: kb/s:1739.30

encoded 116760 frames, 12.93 fps, 1739.30 kb/s
GeneralComplete name : D:\Torrents\The tall blond Dilogy.1972-1974.BDRip.x264.960x\The Return of the Tall Blond Man with One Black Shoe.1974.BDRip.x264.960x.rip by Frost O.S.mp4Format : MPEG-4Format profile : Base MediaCodec ID : isom (isom/avc1/iso2)File size : 1.28 GiBDuration : 1 h 21 minOverall bit rate mode : VariableOverall bit rate : 2 268 kb/sMovie name : The Return of the Tall Blond Man with One Black Shoe 1974 BDRip x264 960x rip by Frost O SDirector : Ив Робер / Yves RobertActor : Пьер Ришар / Жан Карме / Жан Рошфор / Мирей Дарк / Жан Буиз / Поль Ле Персон / Колетт Кастель / Анри Гибе / Эрве Санд / Жан АмосGenre : ComedyContentType : Short FilmEncoded date : UTC 2017-03-12 18:24:34Tagged date : UTC 2017-03-12 18:27:32Writing application : MkvToMp4 version: 0.224 (x64)Comment : rip by Frost O.SLongDescription : Шпионские игры продолжаются. Спецслужбы не могут оставить Перрена в покое — новый министр нашёл досье на высокого блондина, заведённое Бернаром Миланом, и следуя подсказке капитана Камбрэ, подозревающего Тулуза в фарсе с высоким блондином и убийстве Милана, приказывает полковнику Тулузу представить ему «суперагента». Тот в смятении придумывает историю о том, что блондин совсем недавно погиб при выполнении спецоперации в тропиках, но министр требует привести тело на родину для захоронения с почестями. Тулуз посылает своих людей в Рио-де-Жанейро, где Перрен живёт с Кристин, чтобы убить его. / Блондин снова уходит от опасности, ни о чём не подозревая. Тогда Тулуз со своими агентами похищает Кристин, и теперь блондин вынужден выполнять его требования — приехать в Париж и разыграть из себя суперагента перед министром, что убедило бы его прекратить расследование убийства Милана. Министр намеревается послать «суперагента» на важное и очень опасное задание. Тулуз хочет избавиться от блондина, после того, как он сыграет свою роль, так как теперь он «слишком много знает». На помощь Перрену приходит его друг Морис…

VideoID : 1Format : AVCFormat/Info : Advanced Video CodecFormat profile : [email protected] settings, CABAC : YesFormat settings, ReFrames : 9 framesCodec ID : avc1Codec ID/Info : Advanced Video CodingDuration : 1 h 21 minBit rate : 1 740 kb/sMaximum bit rate : 4 844 kb/sWidth : 896 pixelsHeight : 540 pixelsDisplay aspect ratio : 5:3Frame rate mode : ConstantFrame rate : 24.000 FPSColor space : YUVChroma subsampling : 4:2:0Bit depth : 8 bitsScan type : ProgressiveBits/(Pixel*Frame) : 0.150Stream size : 1 009 MiB (77%)Writing library : x264 core 148 r2744 b97ae06Encoding settings : cabac=1 / ref=9 / deblock=1:-2:-2 / analyse=0x3:0x113 / me=umh / subme=11 / psy=1 / psy_rd=1.10:0.00 / mixed_ref=1 / me_range=32 / chroma_me=1 / trellis=2 / 8x8dct=1 / cqm=0 / deadzone=21,11 / fast_pskip=0 / chroma_qp_offset=-2 / threads=6 / lookahead_threads=1 / sliced_threads=0 / nr=0 / decimate=0 / interlaced=0 / bluray_compat=0 / constrained_intra=0 / bframes=9 / b_pyramid=2 / b_adapt=2 / b_bias=0 / direct=3 / weightb=1 / open_gop=0 / weightp=2 / keyint=250 / keyint_min=24 / scenecut=40 / intra_refresh=0 / rc=2pass / mbtree=0 / bitrate=1740 / ratetol=1.0 / qcomp=0.65 / qpmin=0 / qpmax=69 / qpstep=4 / cplxblur=20.0 / qblur=0.5 / ip_ratio=1.40 / pb_ratio=1.30 / aq=2:1.00Language : EnglishEncoded date : UTC 2017-03-12 18:24:34Tagged date : UTC 2017-03-12 18:25:51Color range : LimitedColor primaries : BT.709Transfer characteristics : BT.709Matrix coefficients : BT.709

Audio #1ID : 2Format : AACFormat/Info : Advanced Audio CodecFormat profile : LCCodec ID : 40Duration : 1 h 21 minBit rate mode : VariableBit rate : 128 kb/sMaximum bit rate : 133 kb/sChannel(s) : 2 channelsChannel positions : Front: L RSampling rate : 48.0 kHzFrame rate : 46.875 FPS (1024 spf)Compression mode : LossyStream size : 74.2 MiB (6%)Title : Dub_ CCCP / Dub_ CCCPLanguage : RussianDefault : YesAlternate group : 1Encoded date : UTC 2017-03-12 18:25:28Tagged date : UTC 2017-03-12 18:25:51

Audio #2ID : 3Format : AACFormat/Info : Advanced Audio CodecFormat profile : LCCodec ID : 40Duration : 1 h 21 minBit rate mode : VariableBit rate : 128 kb/sMaximum bit rate : 132 kb/sChannel(s) : 2 channelsChannel positions : Front: L RSampling rate : 48.0 kHzFrame rate : 46.875 FPS (1024 spf)Compression mode : LossyStream size : 74.2 MiB (6%)Title : DVO_ Couz_Video / DVO_ Couz_VideoLanguage : RussianDefault : NoAlternate group : 1Encoded date : UTC 2017-03-12 18:25:34Tagged date : UTC 2017-03-12 18:25:51

Audio #3ID : 4Format : AACFormat/Info : Advanced Audio CodecFormat profile : LCCodec ID : 40Duration : 1 h 21 minBit rate mode : VariableBit rate : 128 kb/sMaximum bit rate : 135 kb/sChannel(s) : 2 channelsChannel positions : Front: L RSampling rate : 48.0 kHzFrame rate : 46.875 FPS (1024 spf)Compression mode : LossyStream size : 74.2 MiB (6%)Title : DVO_ 2_2 / DVO_ 2_2Language : UkrainianDefault : NoAlternate group : 1Encoded date : UTC 2017-03-12 18:25:41Tagged date : UTC 2017-03-12 18:25:51

Audio #4ID : 5Format : AACFormat/Info : Advanced Audio CodecFormat profile : LCCodec ID : 40Duration : 1 h 21 minBit rate mode : VariableBit rate : 128 kb/sMaximum bit rate : 135 kb/sChannel(s) : 2 channelsChannel positions : Front: L RSampling rate : 48.0 kHzFrame rate : 46.875 FPS (1024 spf)Compression mode : LossyStream size : 74.2 MiB (6%)Title : Original / OriginalLanguage : FrenchDefault : NoAlternate group : 1Encoded date : UTC 2017-03-12 18:25:46Tagged date : UTC 2017-03-12 18:25:51

TextID : 6Format : Timed TextMuxing mode : sbtlCodec ID : tx3gDuration : 1 h 19 minBit rate mode : VariableBit rate : 43 b/sStream size : 25.3 KiB (0%)Title : Full / FullLanguage : EnglishDefault : YesForced : NoAlternate group : 2Encoded date : UTC 2017-03-12 18:25:51Tagged date : UTC 2017-03-12 18:25:51
</div>
</div>

Трекер:  [ 12-Мар-2017 20:30 ]

  

Скачать .torrent

Размер .torrent файла 14 KB


Размер: 2.79 GB
Хэш (hash) релиза: c693f692cb52aac33a6a42ef038f88d5cc9a2b8a

Еще никто не оставлял запись к записи скачать торрент [VIDEO] Высокий блондин в черном ботинке: Дилогия Le grand blond avec une chaussure noire: Dilogy . Будь первым!

!Обратная связь