Wp Content Themes Genesis Sample Themify Themify Ajax Php Xmlrpc Php
Byli sobie odkrywcy / Était...

Скачать через торрент [VIDEO] Красотка Pretty Woman бесплатно русская версия torrent активатор

Статистика раздачи
Размер:  3.96 GB   |    Зарегистрирован:  1 год 1 месяц   |    .torrent скачан:  33 раза   |   
Раздают:  1  
   
загрузка...
 
Автор Сообщение

Galfimbul

avatar Galfimbul



Красотка / Pretty Woman
Год выпуска: 1990
Страна: США
Жанр: мелодрама, комедия
Продолжительность: 01:59:37
Перевод 1: Профессиональный (дублированный) Blu-ray EUR
Перевод 2: Профессиональный (дублированный) Первый канал
Перевод 3: Профессиональный (многоголосый закадровый) Карусель
Перевод 4: Профессиональный (двухголосый закадровый) Видеосервис
Перевод 5: Профессиональный (двухголосый закадровый) ОРТ
Перевод 6: Профессиональный (двухголосый закадровый) Tycoon
Перевод 7: Одноголосый закадровый Андрей Гаврилов
Перевод 8: Одноголосый закадровый Андрей Михалёв
Перевод 9: Одноголосый закадровый Юрий Жиров
Перевод 10: Одноголосый закадровый Сергей Визгунов
Оригинальная аудиодорожка: английский
Cубтитры: русские, английские

Режиссер: Гэрри Маршалл / Garry Marshall

В ролях: Ричард Гир, Джулия Робертс, Ральф Беллами, Джейсон Александр, Лора Сан Джакомо, Алекс Хайд-Вайт, Эми Ясбек, Элинор Донахью, Гектор Элизондо, Джудит Болдуин

Описание: Финансовый магнат Эдвард Льюис, проезжая по ночному городу, останавливается около красивой женщины. Ее зовут Вивьен и она берет только наличными. Наутро он понимает, что не хочет расставаться с ней и предлагает девушке остаться в его номере в отеле еще на некоторое время — за дополнительный гонорар. Вивьен оказывается в море блеска и лжи. Она терпит небрежное отношение к ней ради понравившегося мужчины, который перестал быть для нее просто клиентом.

Качество видео: BDRip | Красотка / Pretty Woman (1990) 1080p BD-Remux HDCLUB
Формат видео: MP4

Видео: AVC (x264), 1280x692 (1.85:1), ~2960 kbps, 23.976 fps, 0.139 bpp
Аудио 1 - 10: Русский, AСC, 48 KHz, 2 ch, 160 kbps
Аудио 11: Английский, AСC, 48 KHz, 2 ch, 160 kbps
Cубтитры: русские, английские
Формат субтитров: softsub (SRT)

[b]Релиз:
<div class="sp-wrap">
<div class="sp-head folded">x264 [info]</div>
<div class="sp-body">
crop(0, 20, 0, -20)
raw [info]: 1280x692p 1:1 @ 24000/1001 fps (cfr)
x264 [info]: using SAR=1/1
x264 [info]: profile High, level 4.1
x264 [info]: frame I:1192 Avg QP:19.16 size: 88635
x264 [info]: frame P:35736 Avg QP:21.89 size: 29150
x264 [info]: frame B:135146 Avg QP:23.93 size: 11151
x264 [info]: consecutive B-frames: 1.8% 2.2% 6.7% 14.9% 14.9% 51.2% 5.2% 1.0% 1.4% 0.3% 0.3%
x264 [info]: mb I I16..4: 3.5% 85.3% 11.3%
x264 [info]: mb P I16..4: 0.5% 6.8% 0.9% P16..4: 37.2% 38.8% 9.6% 0.0% 0.0% skip: 6.1%
x264 [info]: mb B I16..4: 0.0% 0.6% 0.1% B16..8: 39.6% 17.0% 2.0% direct: 4.5% skip:36.3% L0:46.5% L1:47.1% BI: 6.3%
x264 [info]: 8x8 transform intra:83.0% inter:69.9%
x264 [info]: direct mvs spatial:99.5% temporal:0.5%
x264 [info]: coded y,uvDC,uvAC intra: 85.7% 82.6% 56.5% inter: 23.4% 23.4% 6.8%
x264 [info]: i16 v,h,dc,p: 41% 14% 4% 41%
x264 [info]: i8 v,h,dc,ddl,ddr,vr,hd,vl,hu: 11% 5% 4% 10% 16% 16% 14% 13% 11%
x264 [info]: i4 v,h,dc,ddl,ddr,vr,hd,vl,hu: 23% 6% 5% 8% 13% 14% 12% 10% 10%
x264 [info]: i8c dc,h,v,p: 39% 22% 20% 20%
x264 [info]: ref P L0: 51.6% 19.6% 10.1% 6.5% 4.2% 4.5% 3.5% 0.0%
x264 [info]: ref B L0: 72.6% 12.0% 6.7% 3.7% 2.7% 1.7% 0.6%
x264 [info]: ref B L1: 94.4% 5.6%
x264 [info]: kb/s:2958.78
<pre>
ОбщееУникальный идентификатор : 255039432996115289140314960809154387368 (0xBFDECEDFAF9780CCBC22D447BC211DA8)Полное имя : ...\[email protected]Формат : MatroskaВерсия формата : Version 4 / Version 2Размер файла : 3,96 ГбайтПродолжительность : 1 ч. 59 м.Общий поток : 4738 Кбит/секНазвание фильма : Красотка / Pretty Woman / 1990 [email protected]=-Дата кодирования : UTC 2017-03-11 16:56:21Программа кодирования : mkvmerge v9.9.0 ('Pick Up') 64bitБиблиотека кодирования : libebml v1.3.4 + libmatroska v1.4.5Attachments : 500.jpg

ВидеоИдентификатор : 1Формат : AVCФормат/Информация : Advanced Video CodecПрофиль формата : [email protected]Параметр CABAC формата : ДаПараметр ReFrames формата : 8 кадровИдентификатор кодека : V_MPEG4/ISO/AVCПродолжительность : 1 ч. 59 м.Битрейт : 2960 Кбит/секШирина : 1280 пикселейВысота : 692 пикселяСоотношение сторон : 1,85:1Режим частоты кадров : ПостоянныйЧастота кадров : 23,976 (24000/1001) кадра/секЦветовое пространство : YUVСубдискретизация насыщенности : 4:2:0Битовая глубина : 8 битТип развёртки : ПрогрессивнаяБит/(Пиксели*Кадры) : 0.139Размер потока : 2,47 Гбайт (62%)Заголовок : Rip by nnlabetikБиблиотека кодирования : x264 core 148 r2744 b97ae06Настройки программы : cabac=1 / ref=8 / deblock=1:-2:-1 / analyse=0x3:0x113 / me=umh / subme=11 / psy=1 / psy_rd=1.00:0.00 / mixed_ref=1 / me_range=32 / chroma_me=1 / trellis=2 / 8x8dct=1 / cqm=0 / deadzone=21,11 / fast_pskip=0 / chroma_qp_offset=-2 / threads=4 / lookahead_threads=1 / sliced_threads=0 / nr=0 / decimate=1 / interlaced=0 / bluray_compat=0 / constrained_intra=0 / bframes=10 / b_pyramid=2 / b_adapt=2 / b_bias=0 / direct=3 / weightb=1 / open_gop=0 / weightp=0 / keyint=240 / keyint_min=23 / scenecut=40 / intra_refresh=0 / rc_lookahead=50 / rc=2pass / mbtree=0 / bitrate=2960 / ratetol=1.0 / qcomp=0.60 / qpmin=0 / qpmax=69 / qpstep=4 / cplxblur=20.0 / qblur=0.5 / vbv_maxrate=50000 / vbv_bufsize=62500 / nal_hrd=none / filler=0 / ip_ratio=1.40 / pb_ratio=1.30 / aq=1:1.00Язык : EnglishDefault : ДаForced : НетЦветовой диапазон : LimitedОсновные цвета : BT.709Характеристики трансфера : BT.709Коэффициенты матрицы : BT.709

Аудио #1Идентификатор : 2Формат : AACФормат/Информация : Advanced Audio CodecПрофиль формата : LCИдентификатор кодека : A_AACПродолжительность : 1 ч. 59 м.Битрейт : 161 Кбит/секКаналы : 2 каналаРасположение каналов : Front: L RЧастота : 48,0 КГцЧастота кадров : 46,875 кадров/сек (1024 spf)Метод сжатия : С потерямиРазмер потока : 138 Мбайт (3%)Заголовок : DUB - Bluray EURЯзык : RussianDefault : ДаForced : Нет

Аудио #2Идентификатор : 3Формат : AACФормат/Информация : Advanced Audio CodecПрофиль формата : LCИдентификатор кодека : A_AACПродолжительность : 1 ч. 59 м.Битрейт : 161 Кбит/секКаналы : 2 каналаРасположение каналов : Front: L RЧастота : 48,0 КГцЧастота кадров : 46,875 кадров/сек (1024 spf)Метод сжатия : С потерямиРазмер потока : 138 Мбайт (3%)Заголовок : DUB - Первый каналЯзык : RussianDefault : НетForced : Нет

Аудио #3Идентификатор : 4Формат : AACФормат/Информация : Advanced Audio CodecПрофиль формата : LCИдентификатор кодека : A_AACПродолжительность : 1 ч. 59 м.Битрейт : 161 Кбит/секКаналы : 2 каналаРасположение каналов : Front: L RЧастота : 48,0 КГцЧастота кадров : 46,875 кадров/сек (1024 spf)Метод сжатия : С потерямиРазмер потока : 138 Мбайт (3%)Заголовок : MVO - КарусельЯзык : RussianDefault : НетForced : Нет

Аудио #4Идентификатор : 5Формат : AACФормат/Информация : Advanced Audio CodecПрофиль формата : LCИдентификатор кодека : A_AACПродолжительность : 1 ч. 59 м.Битрейт : 161 Кбит/секКаналы : 2 каналаРасположение каналов : Front: L RЧастота : 48,0 КГцЧастота кадров : 46,875 кадров/сек (1024 spf)Метод сжатия : С потерямиРазмер потока : 137 Мбайт (3%)Заголовок : DVO - ВидеосервисЯзык : RussianDefault : НетForced : Нет

Аудио #5Идентификатор : 6Формат : AACФормат/Информация : Advanced Audio CodecПрофиль формата : LCИдентификатор кодека : A_AACПродолжительность : 1 ч. 59 м.Битрейт : 161 Кбит/секКаналы : 2 каналаРасположение каналов : Front: L RЧастота : 48,0 КГцЧастота кадров : 46,875 кадров/сек (1024 spf)Метод сжатия : С потерямиРазмер потока : 138 Мбайт (3%)Заголовок : DVO - ОРТЯзык : RussianDefault : НетForced : Нет

Аудио #6Идентификатор : 7Формат : AACФормат/Информация : Advanced Audio CodecПрофиль формата : LCИдентификатор кодека : A_AACПродолжительность : 1 ч. 59 м.Битрейт : 161 Кбит/секКаналы : 2 каналаРасположение каналов : Front: L RЧастота : 48,0 КГцЧастота кадров : 46,875 кадров/сек (1024 spf)Метод сжатия : С потерямиРазмер потока : 138 Мбайт (3%)Заголовок : DVO - TycoonЯзык : RussianDefault : НетForced : Нет

Аудио #7Идентификатор : 8Формат : AACФормат/Информация : Advanced Audio CodecПрофиль формата : LCИдентификатор кодека : A_AACПродолжительность : 1 ч. 59 м.Битрейт : 161 Кбит/секКаналы : 2 каналаРасположение каналов : Front: L RЧастота : 48,0 КГцЧастота кадров : 46,875 кадров/сек (1024 spf)Метод сжатия : С потерямиРазмер потока : 138 Мбайт (3%)Заголовок : AVO - А.ГавриловЯзык : RussianDefault : НетForced : Нет

Аудио #8Идентификатор : 9Формат : AACФормат/Информация : Advanced Audio CodecПрофиль формата : LCИдентификатор кодека : A_AACПродолжительность : 1 ч. 59 м.Битрейт : 161 Кбит/секКаналы : 2 каналаРасположение каналов : Front: L RЧастота : 48,0 КГцЧастота кадров : 46,875 кадров/сек (1024 spf)Метод сжатия : С потерямиРазмер потока : 138 Мбайт (3%)Заголовок : AVO - А.МихалёвЯзык : RussianDefault : НетForced : Нет

Аудио #9Идентификатор : 10Формат : AACФормат/Информация : Advanced Audio CodecПрофиль формата : LCИдентификатор кодека : A_AACПродолжительность : 1 ч. 59 м.Битрейт : 161 Кбит/секКаналы : 2 каналаРасположение каналов : Front: L RЧастота : 48,0 КГцЧастота кадров : 46,875 кадров/сек (1024 spf)Метод сжатия : С потерямиРазмер потока : 138 Мбайт (3%)Заголовок : AVO - Ю.ЖировЯзык : RussianDefault : НетForced : Нет

Аудио #10Идентификатор : 11Формат : AACФормат/Информация : Advanced Audio CodecПрофиль формата : LCИдентификатор кодека : A_AACПродолжительность : 1 ч. 59 м.Битрейт : 161 Кбит/секКаналы : 2 каналаРасположение каналов : Front: L RЧастота : 48,0 КГцЧастота кадров : 46,875 кадров/сек (1024 spf)Метод сжатия : С потерямиРазмер потока : 138 Мбайт (3%)Заголовок : AVO - С.ВизгуновЯзык : RussianDefault : НетForced : Нет

Аудио #11Идентификатор : 12Формат : AACФормат/Информация : Advanced Audio CodecПрофиль формата : LCИдентификатор кодека : A_AACПродолжительность : 1 ч. 59 м.Битрейт : 161 Кбит/секКаналы : 2 каналаРасположение каналов : Front: L RЧастота : 48,0 КГцЧастота кадров : 46,875 кадров/сек (1024 spf)Метод сжатия : С потерямиРазмер потока : 137 Мбайт (3%)Заголовок : OriginalЯзык : EnglishDefault : НетForced : Нет

Текст #1Идентификатор : 13Формат : UTF-8Идентификатор кодека : S_TEXT/UTF8Идентификатор кодека/Информация : UTF-8 Plain TextПродолжительность : 1 ч. 56 м.Битрейт : 95 бит/секCount of elements : 1575Размер потока : 80,8 Кбайт (0%)Язык : RussianDefault : НетForced : Нет

Текст #2Идентификатор : 14Формат : UTF-8Идентификатор кодека : S_TEXT/UTF8Идентификатор кодека/Информация : UTF-8 Plain TextПродолжительность : 1 ч. 56 м.Битрейт : 72 бит/секCount of elements : 1761Размер потока : 61,5 Кбайт (0%)Язык : EnglishDefault : НетForced : Нет

Меню00:00:00.000 : :Chapter 0100:09:26.398 : :Chapter 0200:13:39.234 : :Chapter 0300:18:51.130 : :Chapter 0400:34:00.038 : :Chapter 0500:41:51.967 : :Chapter 0600:44:46.684 : :Chapter 0700:49:52.030 : :Chapter 0800:54:50.077 : :Chapter 0901:00:35.756 : :Chapter 1001:08:36.487 : :Chapter 1101:17:20.636 : :Chapter 1201:21:09.323 : :Chapter 1301:29:10.177 : :Chapter 1401:35:29.140 : :Chapter 1501:42:23.636 : :Chapter 1601:48:39.595 : :Chapter 1701:52:34.456 : :Chapter 1801:56:27.189 : :Chapter 19
</pre></div>
</div>

Трекер:  [ 12-Мар-2017 09:00 ]

  

Скачать .torrent

Размер .torrent файла 20 KB


Размер: 3.96 GB
Хэш (hash) релиза: c4a41244c1d81331eb13ecb0d2cc56602cc4c5da

Еще никто не оставлял запись к записи скачать торрент [VIDEO] Красотка Pretty Woman . Будь первым!

!Обратная связь