Camera Wars: A Sundaes for Breakfast Romance, Book 2 | Scream Queens (2015) | Темный дворецкий: Книга Атлантики (фильм) / Kuroshitsuji: Book of the Atlantic (2017) BDRip 720p | L

Скачать через торрент [VIDEO] Доктор Стрэндж Doctor Strange бесплатно русская версия torrent активатор

Статистика раздачи
Размер:  1.36 GB   |    Зарегистрирован:  1 год 4 месяца   |    .torrent скачан:  92 раза   |   
Раздают:  1  
   
загрузка...
 
Автор Сообщение

Galfimbul

avatar Galfimbul


Доктор Стрэндж Doctor Strange
«За гранью сознания лежит новая реальность»

Год выпуска: 2016
Страна: США / Marvel Studios Inc.
Жанр: фантастика, фэнтези, боевик, приключения
Продолжительность: 01:54:59
Перевод №1: Русский Профессиональный (полное дублирование) Blu-ray EUR Лицензия|
Перевод №2: Украинский Профессиональный (полное дублирование) Disney / Buena
Оригинальная дорожка: Есть
Cубтитры: русские (форсированные iTunes, полные iTunes), английские (форсированные iTunes, полные iTunes)
Режиссер: Скотт Дерриксон / Scott Derrickson
В ролях: Бенедикт Камбербэтч, Тильда Суинтон, Мадс Миккельсен, Чиветел Эджиофор, Рэйчел МакАдамс, Бенедикт Вонг, Майкл Стулбарг, Бенджамин Брэтт, Скотт Эдкинс, Зара Питиан и другие .
Описание: Страшная автокатастрофа поставила крест на карьере успешного нейрохирурга Доктора Стрэнджа. Отчаявшись, он отправляется в путешествие в поисках исцеления и открывает в себе невероятные способности к трансформации пространства и времени. Теперь он — связующее звено между параллельными измерениями, а его миссия — защищать жителей Земли и противодействовать Злу, какое бы обличие оно ни принимало.
Релиз группы
Качество: BDRip / рип с Blu-ray EUR 1080p
Формат: MP4
Видео кодек: H.264
Аудио кодек: AAC
Видео: 960х402 AR:2.40 1300 kbps 23.976 fps
Аудио №1: [Russian] 2ch 48 kHz 128 kbps - Профессиональный (полное дублирование) Blu-ray EUR Лицензия|
Аудио №2: [Ukrainian] 2ch 48 kHz 128 kbps - Профессиональный (полное дублирование) Disney / Buena Vista
Аудио №3: [English] 2ch 48 kHz 128 kbps - Оригинал
avs [info]: 960x402p 1:1 @ 2997/125 fps (cfr)
x264 [info]: using SAR=1/1
x264 [info]: using cpu capabilities: MMX2 SSE2Fast SSSE3 SSE4.2 AVX FMA3 AVX2 LZCNT BMI2
x264 [info]: profile High, level 4.1

x264 [info]: frame I:1329 Avg QP:13.86 size: 44500
x264 [info]: frame P:39992 Avg QP:18.26 size: 13668
x264 [info]: frame B:124079 Avg QP:19.99 size: 4152
x264 [info]: consecutive B-frames: 4.6% 4.3% 10.5% 18.8% 17.3% 26.0% 7.3% 3.2% 3.0% 1.8% 1.8% 1.6%
x264 [info]: mb I I16..4: 6.5% 70.3% 23.3%
x264 [info]: mb P I16..4: 1.6% 11.3% 2.2% P16..4: 33.7% 35.3% 8.7% 0.0% 0.0% skip: 7.2%
x264 [info]: mb B I16..4: 0.2% 1.2% 0.3% B16..8: 35.2% 17.5% 2.1% direct: 2.9% skip:40.6% L0:43.3% L1:45.9% BI:10.8%
x264 [info]: 8x8 transform intra:73.6% inter:61.7%
x264 [info]: direct mvs spatial:95.7% temporal:4.3%
x264 [info]: coded y,uvDC,uvAC intra: 77.4% 77.0% 49.0% inter: 14.9% 12.8% 5.1%
x264 [info]: i16 v,h,dc,p: 19% 10% 4% 67%
x264 [info]: i8 v,h,dc,ddl,ddr,vr,hd,vl,hu: 14% 8% 5% 9% 13% 12% 13% 12% 14%
x264 [info]: i4 v,h,dc,ddl,ddr,vr,hd,vl,hu: 28% 6% 5% 8% 12% 11% 11% 9% 10%
x264 [info]: i8c dc,h,v,p: 33% 29% 21% 18%
x264 [info]: Weighted P-Frames: Y:14.6% UV:9.3%
x264 [info]: ref P L0: 53.0% 8.5% 17.5% 6.8% 4.9% 3.7% 3.1% 2.0% 0.4% 0.1%
x264 [info]: ref B L0: 76.9% 11.3% 5.9% 2.5% 1.9% 1.1% 0.4%
x264 [info]: ref B L1: 94.5% 5.5%
x264 [info]: kb/s:1299.83

encoded 165400 frames, 17.04 fps, 1299.83 kb/s
GeneralComplete name : D:\Torrents\Doctor Strange.2016.BDRip.x264.960x.rip by Frost O.S.mp4Format : MPEG-4Format profile : Base MediaCodec ID : isom (isom/avc1/iso2)File size : 1.36 GiBDuration : 1 h 54 minOverall bit rate mode : VariableOverall bit rate : 1 699 kb/sMovie name : Doctor Strange 2016 BDRip x264 960x rip by Frost O SDirector : Скотт Дерриксон / Scott DerricksonActor : Бенедикт Камбербэтч / Тильда Суинтон / Мадс Миккельсен / Чиветел Эджиофор / Рэйчел МакАдамс / Бенедикт Вонг / Майкл Стулбарг / Бенджамин Брэтт / Скотт Эдкинс / Зара ПитианGenre : FantasyContentType : Short FilmEncoded date : UTC 2017-03-11 15:35:56Tagged date : UTC 2017-03-11 15:38:34Writing application : MkvToMp4 version: 0.224 (x64)Cover : YesComment : rip by Frost O.SLongDescription : Страшная автокатастрофа поставила крест на карьере успешного нейрохирурга Доктора Стрэнджа. Отчаявшись, он отправляется в путешествие в поисках исцеления и открывает в себе невероятные способности к трансформации пространства и времени. Теперь он — связующее звено между параллельными измерениями, а его миссия — защищать жителей Земли и противодействовать Злу, какое бы обличие оно ни принимало.

VideoID : 1Format : AVCFormat/Info : Advanced Video CodecFormat profile : [email protected] settings, CABAC : YesFormat settings, ReFrames : 8 framesCodec ID : avc1Codec ID/Info : Advanced Video CodingDuration : 1 h 54 minBit rate : 1 300 kb/sMaximum bit rate : 6 578 kb/sWidth : 960 pixelsHeight : 402 pixelsDisplay aspect ratio : 2.40:1Frame rate mode : ConstantFrame rate : 23.976 (24000/1001) FPSOriginal frame rate : 23.976 (23976/1000) FPSColor space : YUVChroma subsampling : 4:2:0Bit depth : 8 bitsScan type : ProgressiveBits/(Pixel*Frame) : 0.140Stream size : 1.04 GiB (77%)Writing library : x264 core 148 r2744 b97ae06Encoding settings : cabac=1 / ref=8 / deblock=1:-3:-3 / analyse=0x3:0x113 / me=umh / subme=11 / psy=1 / psy_rd=0.90:0.00 / mixed_ref=1 / me_range=32 / chroma_me=1 / trellis=2 / 8x8dct=1 / cqm=0 / deadzone=21,11 / fast_pskip=0 / chroma_qp_offset=-2 / threads=6 / lookahead_threads=1 / sliced_threads=0 / nr=0 / decimate=0 / interlaced=0 / bluray_compat=0 / constrained_intra=0 / bframes=11 / b_pyramid=2 / b_adapt=2 / b_bias=0 / direct=3 / weightb=1 / open_gop=0 / weightp=2 / keyint=250 / keyint_min=23 / scenecut=40 / intra_refresh=0 / rc=2pass / mbtree=0 / bitrate=1300 / ratetol=1.0 / qcomp=0.70 / qpmin=0 / qpmax=69 / qpstep=4 / cplxblur=20.0 / qblur=0.5 / ip_ratio=1.40 / pb_ratio=1.30 / aq=3:0.70Language : EnglishEncoded date : UTC 2017-03-11 15:35:56Tagged date : UTC 2017-03-11 15:37:09Color range : LimitedColor primaries : BT.709Transfer characteristics : BT.709Matrix coefficients : BT.709

Audio #1ID : 2Format : AACFormat/Info : Advanced Audio CodecFormat profile : LCCodec ID : 40Duration : 1 h 54 minBit rate mode : VariableBit rate : 128 kb/sMaximum bit rate : 135 kb/sChannel(s) : 2 channelsChannel positions : Front: L RSampling rate : 48.0 kHzFrame rate : 46.875 FPS (1024 spf)Compression mode : LossyStream size : 105 MiB (8%)Title : Dub_ Blu_ray EUR / Dub_ Blu_ray EURLanguage : RussianDefault : YesAlternate group : 1Encoded date : UTC 2017-03-11 15:36:43Tagged date : UTC 2017-03-11 15:37:09

Audio #2ID : 3Format : AACFormat/Info : Advanced Audio CodecFormat profile : LCCodec ID : 40Duration : 1 h 54 minBit rate mode : VariableBit rate : 128 kb/sMaximum bit rate : 135 kb/sChannel(s) : 2 channelsChannel positions : Front: L RSampling rate : 48.0 kHzFrame rate : 46.875 FPS (1024 spf)Compression mode : LossyStream size : 105 MiB (8%)Title : Dub_ _Disney_ Buena Vista_ / Dub_ _Disney_ Buena Vista_Language : UkrainianDefault : NoAlternate group : 1Encoded date : UTC 2017-03-11 15:36:53Tagged date : UTC 2017-03-11 15:37:09

Audio #3ID : 4Format : AACFormat/Info : Advanced Audio CodecFormat profile : LCCodec ID : 40Duration : 1 h 54 minBit rate mode : VariableBit rate : 128 kb/sMaximum bit rate : 135 kb/sChannel(s) : 2 channelsChannel positions : Front: L RSampling rate : 48.0 kHzFrame rate : 46.875 FPS (1024 spf)Compression mode : LossyStream size : 105 MiB (8%)Title : Original / OriginalLanguage : EnglishDefault : NoAlternate group : 1Encoded date : UTC 2017-03-11 15:37:00Tagged date : UTC 2017-03-11 15:37:09

Text #1ID : 5Format : Timed TextMuxing mode : sbtlCodec ID : tx3gDuration : 1 h 54 minBit rate mode : VariableBit rate : 0 b/sStream size : 98.0 Bytes (0%)Title : Forced_ iTunes / Forced_ iTunesLanguage : RussianDefault : YesForced : NoAlternate group : 2Encoded date : UTC 2017-03-11 15:37:09Tagged date : UTC 2017-03-11 15:37:09

Text #2ID : 6Format : Timed TextMuxing mode : sbtlCodec ID : tx3gDuration : 1 h 54 minBit rate mode : VariableBit rate : 78 b/sStream size : 66.0 KiB (0%)Title : iTunes / iTunesLanguage : RussianDefault : NoForced : NoAlternate group : 2Encoded date : UTC 2017-03-11 15:37:09Tagged date : UTC 2017-03-11 15:37:09

Text #3ID : 7Format : Timed TextMuxing mode : sbtlCodec ID : tx3gDuration : 1 h 46 minDuration_FirstFrame : 1 h 46 minBit rate mode : VariableBit rate : 0 b/sStream size : 18.0 Bytes (0%)Title : Forced_ iTunes / Forced_ iTunesLanguage : EnglishDefault : NoForced : NoAlternate group : 2Encoded date : UTC 2017-03-11 15:37:09Tagged date : UTC 2017-03-11 15:37:09

Text #4ID : 8Format : Timed TextMuxing mode : sbtlCodec ID : tx3gDuration : 1 h 54 minBit rate mode : VariableBit rate : 49 b/sStream size : 41.3 KiB (0%)Title : iTunes / iTunesLanguage : EnglishDefault : NoForced : NoAlternate group : 2Encoded date : UTC 2017-03-11 15:37:09Tagged date : UTC 2017-03-11 15:37:09


Трекер:  [ 11-Мар-2017 18:00 ]

  

Скачать .torrent

Размер .torrent файла 14 KB


Размер: 1.36 GB
Хэш (hash) релиза: f872ab04dcd91536f5362afa77449042860ad2e6

Еще никто не оставлял запись к записи скачать торрент [VIDEO] Доктор Стрэндж Doctor Strange . Будь первым!

!Обратная связь