suntan movie download 300 mb | Amateur.Teen.Selfies.Mix.Pack.376 | Hard Rap Instrumental | Aggressive Hip Hop Beat (prod. ViolentBeatz)

Скачать через торрент [VIDEO] Доктор Стрэндж Doctor Strange бесплатно русская версия torrent активатор

Статистика раздачи
Размер:  415 MB   |    Зарегистрирован:  1 год 4 месяца   |    .torrent скачан:  28 раз   |   
Раздают:  1  
   
загрузка...
 
Автор Сообщение

Galfimbul

avatar Galfimbul


Доктор Стрэндж Doctor Strange
«За гранью сознания лежит новая реальность»

Год выпуска: 2016
Страна: США / Marvel Studios Inc.
Жанр: фантастика, фэнтези, боевик, приключения
Продолжительность: 01:54:59
Перевод: Русский Профессиональный (полное дублирование) Blu-ray EUR Лицензия|
Cубтитры: нет
Режиссер: Скотт Дерриксон / Scott Derrickson
В ролях: Бенедикт Камбербэтч, Тильда Суинтон, Мадс Миккельсен, Чиветел Эджиофор, Рэйчел МакАдамс, Бенедикт Вонг, Майкл Стулбарг, Бенджамин Брэтт, Скотт Эдкинс, Зара Питиан и другие .
Описание: Страшная автокатастрофа поставила крест на карьере успешного нейрохирурга Доктора Стрэнджа. Отчаявшись, он отправляется в путешествие в поисках исцеления и открывает в себе невероятные способности к трансформации пространства и времени. Теперь он — связующее звено между параллельными измерениями, а его миссия — защищать жителей Земли и противодействовать Злу, какое бы обличие оно ни принимало.
Релиз группы
Качество: HDRip / рип с BDRip 720p
Формат: MP4
Видео кодек: XviD
Аудио кодек: AAC
Видео: 480х200 AR:2.40 369 kbps 23.976 fps
Аудио: [Russian] 2ch 48 kHz 128 kbps - Профессиональный (полное дублирование) Blu-ray EUR Лицензия|
GeneralComplete name : D:\Torrents\Doctor Strange.2016.HDRip.XviD.480x.rip by Frost O.S.mp4Format : MPEG-4Format profile : Base MediaCodec ID : isom (isom/iso2)File size : 415 MiBDuration : 1 h 54 minOverall bit rate mode : VariableOverall bit rate : 505 kb/sMovie name : Doctor Strange 2016 HDRip XviD 480x rip by Frost O SDirector : Скотт Дерриксон / Scott DerricksonActor : Бенедикт Камбербэтч / Тильда Суинтон / Мадс Миккельсен / Чиветел Эджиофор / Рэйчел МакАдамс / Бенедикт Вонг / Майкл Стулбарг / Бенджамин Брэтт / Скотт Эдкинс / Зара ПитианGenre : FantasyContentType : Short FilmEncoded date : UTC 2017-03-11 15:45:19Tagged date : UTC 2017-03-11 15:46:04Writing application : MkvToMp4 version: 0.224 (x64)Cover : YesComment : rip by Frost O.SLongDescription : Страшная автокатастрофа поставила крест на карьере успешного нейрохирурга Доктора Стрэнджа. Отчаявшись, он отправляется в путешествие в поисках исцеления и открывает в себе невероятные способности к трансформации пространства и времени. Теперь он — связующее звено между параллельными измерениями, а его миссия — защищать жителей Земли и противодействовать Злу, какое бы обличие оно ни принимало.

VideoID : 1Format : MPEG-4 VisualFormat profile : Advanced [email protected] settings, BVOP : YesFormat settings, QPel : NoFormat settings, GMC : No warppointsFormat settings, Matrix : CustomCodec ID : 20Duration : 1 h 54 minBit rate mode : VariableBit rate : 369 kb/sMaximum bit rate : 194 Mb/sWidth : 480 pixelsHeight : 200 pixelsDisplay aspect ratio : 2.40:1Frame rate mode : VariableFrame rate : 23.976 (23976/1000) FPSMinimum frame rate : 11.988 FPSMaximum frame rate : 23.976 FPSColor space : YUVChroma subsampling : 4:2:0Bit depth : 8 bitsScan type : ProgressiveCompression mode : LossyBits/(Pixel*Frame) : 0.160Stream size : 304 MiB (73%)Title : avi_GPAC0.5.2_DEV_rev248_g39d5978_masterWriting library : XviD 1.2.1 (UTC 2008-12-04)Language : EnglishTagged date : UTC 2017-03-11 15:45:29

AudioID : 2Format : AACFormat/Info : Advanced Audio CodecFormat profile : LCCodec ID : 40Duration : 1 h 54 minBit rate mode : VariableBit rate : 128 kb/sMaximum bit rate : 135 kb/sChannel(s) : 2 channelsChannel positions : Front: L RSampling rate : 48.0 kHzFrame rate : 46.875 FPS (1024 spf)Compression mode : LossyStream size : 105 MiB (25%)Title : Dub_ Blu_ray EUR / Dub_ Blu_ray EURLanguage : RussianDefault : YesAlternate group : 1Encoded date : UTC 2017-03-11 15:45:25Tagged date : UTC 2017-03-11 15:45:29


Трекер:  [ 11-Мар-2017 18:00 ]

  

Скачать .torrent

Размер .torrent файла 16 KB


Размер: 415 MB
Хэш (hash) релиза: cef9077b05ab5cee6d3580b1e82ee06e5e4d4b5f

Еще никто не оставлял запись к записи скачать торрент [VIDEO] Доктор Стрэндж Doctor Strange . Будь первым!

!Обратная связь