(2016) TS Jason Bourne | The Photoshop Book for Digital Photographers | A Student's Manual for A First Course in General Relativity (2016) - pdf - zeke23

Скачать через торрент [VIDEO] Мистер Бин: Дилогия Bean: Dilogy бесплатно русская версия torrent активатор

Статистика раздачи
Размер:  2.88 GB   |    Зарегистрирован:  1 год 4 месяца   |    .torrent скачан:  22 раза   |   
Раздают:  1  
   
загрузка...
 
Автор Сообщение

Galfimbul

avatar Galfimbul


Мистер Бин: Дилогия / Bean: Dilogy

Мистер Бин / Bean

Год выпуска: 1997
Страна: Великобритания, США
Жанр: комедия, семейный
Продолжительность: 01:29:17
Перевод №1: Русский Профессиональный (многоголосый, закадровый) R5
Перевод №2: Русский Профессиональный (многоголосый, закадровый) HTB+
Перевод №3: Русский Профессиональный (многоголосый, закадровый) CTC
Перевод №4: Украинский Профессиональный (многоголосый, закадровый)
Оригинальная дорожка: Есть
Cубтитры: русские (полные), украинские (полные), английские (полные)
Режиссер: Мэл Смит / Mel Smith
В ролях: Роуэн Эткинсон, Питер МакНикол, Джон Миллз, Памела Рид, Харрис Юлин, Берт Рейнолдс, Ларри Дрэйк, Дэнни Голдринг, Джонни Галэки, Крис Эллис и другие .
Описание: Мистер Бин работает смотрителем в Королевской Британской Галерее. Начальство давно уволило бы его по формулировке «за сон на рабочем месте», если бы не покровительство директора.

Вместо этого Бина отправляют в командировку в Лос-Анджелес. Там его принимают за официальное лицо, приехавшее на открытие величайшей выставки США...
Релиз группы
Качество: BDRip / рип с Blu-ray Disc 1080p CEE
Формат: MP4
Видео кодек: H.264
Аудио кодек: AAC
Видео: 960x520 AR:1.85 1740 kbps 23.976 fps
Аудио №1: [Russian] 2ch 48 kHz 128 kbps - Профессиональный (многоголосый, закадровый) R5
Аудио №2: [Russian] 2ch 48 kHz 128 kbps - Профессиональный (многоголосый, закадровый) НТВ+
Аудио №3: [Russian] 2ch 48 kHz 128 kbps - Профессиональный (многоголосый, закадровый) CTC
Аудио №4: [Ukrainian] 2ch 48 kHz 128 kbps - Профессиональный (многоголосый, закадровый)
Аудио №5: [English] 2ch 48 kHz 128 kbps - Оригинал
<div class="sp-wrap">
<div class="sp-head folded">Logx264</div>
<div class="sp-body">avs [info]: 960x520p 1:1 @ 2997/125 fps (cfr)
x264 [info]: using SAR=1/1
x264 [info]: using cpu capabilities: MMX2 SSE2Fast SSSE3 SSE4.2 AVX FMA3 AVX2 LZCNT BMI2
x264 [info]: profile High, level 4.1

x264 [info]: frame I:1171 Avg QP:19.37 size: 63429
x264 [info]: frame P:28298 Avg QP:22.80 size: 18828
x264 [info]: frame B:98979 Avg QP:24.67 size: 5634
x264 [info]: consecutive B-frames: 2.2% 3.9% 6.8% 21.4% 17.6% 37.9% 5.5% 2.5% 1.0% 1.2%
x264 [info]: mb I I16..4: 4.7% 74.2% 21.0%
x264 [info]: mb P I16..4: 0.5% 5.7% 1.4% P16..4: 34.5% 38.4% 11.7% 0.0% 0.0% skip: 7.8%
x264 [info]: mb B I16..4: 0.0% 0.4% 0.1% B16..8: 38.3% 18.4% 2.9% direct: 3.5% skip:36.3% L0:43.1% L1:45.4% BI:11.4%
x264 [info]: 8x8 transform intra:74.9% inter:57.9%
x264 [info]: direct mvs spatial:98.2% temporal:1.8%
x264 [info]: coded y,uvDC,uvAC intra: 89.0% 72.1% 37.9% inter: 19.5% 8.8% 1.7%
x264 [info]: i16 v,h,dc,p: 25% 20% 6% 49%
x264 [info]: i8 v,h,dc,ddl,ddr,vr,hd,vl,hu: 11% 6% 5% 11% 15% 14% 14% 12% 12%
x264 [info]: i4 v,h,dc,ddl,ddr,vr,hd,vl,hu: 16% 8% 4% 9% 15% 14% 13% 11% 11%
x264 [info]: i8c dc,h,v,p: 29% 29% 23% 20%
x264 [info]: Weighted P-Frames: Y:7.5% UV:3.6%
x264 [info]: ref P L0: 47.0% 11.5% 17.6% 6.3% 5.6% 4.0% 3.8% 1.9% 2.1% 0.2% 0.0%
x264 [info]: ref B L0: 76.5% 10.1% 5.4% 2.7% 2.1% 1.8% 1.1% 0.3%
x264 [info]: ref B L1: 94.9% 5.1%
x264 [info]: kb/s:1739.20

encoded 128448 frames, 12.94 fps, 1739.20 kb/s
GeneralComplete name : D:\Torrents\Bean Dilogy.1997-2007.BDRip.x264.960x\Bean.1997.BDRip.x264.960x.rip by Frost O.S.mp4Format : MPEG-4Format profile : Base MediaCodec ID : isom (isom/avc1/iso2)File size : 1.50 GiBDuration : 1 h 29 minOverall bit rate mode : VariableOverall bit rate : 2 401 kb/sMovie name : Bean 1997 BDRip x264 960x rip by Frost O SDirector : Мэл Смит / Mel SmithActor : Роуэн Эткинсон / Питер МакНикол / Джон Миллз / Памела Рид / Харрис Юлин / Берт Рейнолдс / Ларри Дрэйк / Дэнни Голдринг / Джонни Галэки / Крис ЭллисGenre : ComedyContentType : Short FilmEncoded date : UTC 2017-03-10 16:22:59Tagged date : UTC 2017-03-10 16:25:28Writing application : MkvToMp4 version: 0.224 (x64)Cover : YesComment : rip by Frost O.SLongDescription : Мистер Бин работает смотрителем в Королевской Британской Галерее. Начальство давно уволило бы его по формулировке «за сон на рабочем месте», если бы не покровительство директора. / Вместо этого Бина отправляют в командировку в Лос-Анджелес. Там его принимают за официальное лицо, приехавшее на открытие величайшей выставки США...

VideoID : 1Format : AVCFormat/Info : Advanced Video CodecFormat profile : [email protected] settings, CABAC : YesFormat settings, ReFrames : 9 framesCodec ID : avc1Codec ID/Info : Advanced Video CodingDuration : 1 h 29 minBit rate : 1 740 kb/sMaximum bit rate : 5 566 kb/sWidth : 960 pixelsHeight : 520 pixelsDisplay aspect ratio : 1.85:1Frame rate mode : ConstantFrame rate : 23.976 (24000/1001) FPSOriginal frame rate : 23.976 (23976/1000) FPSColor space : YUVChroma subsampling : 4:2:0Bit depth : 8 bitsScan type : ProgressiveBits/(Pixel*Frame) : 0.145Stream size : 1.08 GiB (72%)Writing library : x264 core 148 r2744 b97ae06Encoding settings : cabac=1 / ref=9 / deblock=1:-2:-2 / analyse=0x3:0x113 / me=umh / subme=11 / psy=1 / psy_rd=1.00:0.00 / mixed_ref=1 / me_range=32 / chroma_me=1 / trellis=2 / 8x8dct=1 / cqm=0 / deadzone=21,11 / fast_pskip=0 / chroma_qp_offset=-2 / threads=6 / lookahead_threads=1 / sliced_threads=0 / nr=0 / decimate=0 / interlaced=0 / bluray_compat=0 / constrained_intra=0 / bframes=9 / b_pyramid=2 / b_adapt=2 / b_bias=0 / direct=3 / weightb=1 / open_gop=0 / weightp=2 / keyint=250 / keyint_min=23 / scenecut=40 / intra_refresh=0 / rc=2pass / mbtree=0 / bitrate=1740 / ratetol=1.0 / qcomp=0.60 / qpmin=0 / qpmax=69 / qpstep=4 / cplxblur=20.0 / qblur=0.5 / ip_ratio=1.40 / pb_ratio=1.30 / aq=2:0.80Language : EnglishEncoded date : UTC 2017-03-10 16:22:59Tagged date : UTC 2017-03-10 16:23:52Color range : LimitedColor primaries : BT.709Transfer characteristics : BT.709Matrix coefficients : BT.709

Audio #1ID : 2Format : AACFormat/Info : Advanced Audio CodecFormat profile : LCCodec ID : 40Duration : 1 h 29 minBit rate mode : VariableBit rate : 128 kb/sMaximum bit rate : 135 kb/sChannel(s) : 2 channelsChannel positions : Front: L RSampling rate : 48.0 kHzFrame rate : 46.875 FPS (1024 spf)Compression mode : LossyStream size : 81.7 MiB (5%)Title : MVO_ R5 / MVO_ R5Language : RussianDefault : YesAlternate group : 1Encoded date : UTC 2017-03-10 16:23:16Tagged date : UTC 2017-03-10 16:23:52

Audio #2ID : 3Format : AACFormat/Info : Advanced Audio CodecFormat profile : LCCodec ID : 40Duration : 1 h 29 minBit rate mode : VariableBit rate : 128 kb/sMaximum bit rate : 135 kb/sChannel(s) : 2 channelsChannel positions : Front: L RSampling rate : 48.0 kHzFrame rate : 46.875 FPS (1024 spf)Compression mode : LossyStream size : 81.7 MiB (5%)Title : MVO_ HTB_ / MVO_ HTB_Language : RussianDefault : NoAlternate group : 1Encoded date : UTC 2017-03-10 16:23:26Tagged date : UTC 2017-03-10 16:23:52

Audio #3ID : 4Format : AACFormat/Info : Advanced Audio CodecFormat profile : LCCodec ID : 40Duration : 1 h 29 minBit rate mode : VariableBit rate : 128 kb/sMaximum bit rate : 133 kb/sChannel(s) : 2 channelsChannel positions : Front: L RSampling rate : 48.0 kHzFrame rate : 46.875 FPS (1024 spf)Compression mode : LossyStream size : 81.7 MiB (5%)Title : MVO_ CTC / MVO_ CTCLanguage : RussianDefault : NoAlternate group : 1Encoded date : UTC 2017-03-10 16:23:33Tagged date : UTC 2017-03-10 16:23:52

Audio #4ID : 5Format : AACFormat/Info : Advanced Audio CodecFormat profile : LCCodec ID : 40Duration : 1 h 29 minBit rate mode : VariableBit rate : 128 kb/sMaximum bit rate : 132 kb/sChannel(s) : 2 channelsChannel positions : Front: L RSampling rate : 48.0 kHzFrame rate : 46.875 FPS (1024 spf)Compression mode : LossyStream size : 81.7 MiB (5%)Title : MVO / MVOLanguage : UkrainianDefault : NoAlternate group : 1Encoded date : UTC 2017-03-10 16:23:39Tagged date : UTC 2017-03-10 16:23:52

Audio #5ID : 6Format : AACFormat/Info : Advanced Audio CodecFormat profile : LCCodec ID : 40Duration : 1 h 29 minBit rate mode : VariableBit rate : 128 kb/sMaximum bit rate : 134 kb/sChannel(s) : 2 channelsChannel positions : Front: L RSampling rate : 48.0 kHzFrame rate : 46.875 FPS (1024 spf)Compression mode : LossyStream size : 81.7 MiB (5%)Title : Original / OriginalLanguage : EnglishDefault : NoAlternate group : 1Encoded date : UTC 2017-03-10 16:23:47Tagged date : UTC 2017-03-10 16:23:52

Text #1ID : 7Format : Timed TextMuxing mode : sbtlCodec ID : tx3gDuration : 1 h 29 minBit rate mode : VariableBit rate : 69 b/sStream size : 45.1 KiB (0%)Title : Full / FullLanguage : RussianDefault : YesForced : NoAlternate group : 2Encoded date : UTC 2017-03-10 16:23:52Tagged date : UTC 2017-03-10 16:23:52

Text #2ID : 8Format : Timed TextMuxing mode : sbtlCodec ID : tx3gDuration : 1 h 29 minBit rate mode : VariableBit rate : 77 b/sStream size : 50.0 KiB (0%)Title : Full / FullLanguage : UkrainianDefault : NoForced : NoAlternate group : 2Encoded date : UTC 2017-03-10 16:23:52Tagged date : UTC 2017-03-10 16:23:52

Text #3ID : 9Format : Timed TextMuxing mode : sbtlCodec ID : tx3gDuration : 1 h 29 minBit rate mode : VariableBit rate : 53 b/sStream size : 34.3 KiB (0%)Title : Full / FullLanguage : EnglishDefault : NoForced : NoAlternate group : 2Encoded date : UTC 2017-03-10 16:23:52Tagged date : UTC 2017-03-10 16:23:52
</div>
</div>
Мистер Бин на отдыхе/ Mr. Bean's Holiday

Год выпуска: 2007
Страна: Великобритания, Франция, Германия
Жанр: комедия, семейный
Продолжительность: 01:29:35
Перевод: Русский Профессиональный (полное дублирование) R5
Перевод: Украинский Профессиональный (многоголосый, закадровый) НЛО TV
Оригинальная дорожка: Есть
Cубтитры: русские (форсированные), украинские (полные), английские (форсированные, полные)
Режиссер: Стив Бенделак / Steve Bendelack
В ролях: Роуэн Эткинсон, Стив Пембертон, Лили Эткинсон, Престон Найман, Sharlit Deyzac, Francois Touch, Эмма де Кон, Арсен Моска, Стефан Дебак, Уиллем Дефо и другие .
Описание: Мистер Бин отправляется на отдых на юг Франции, оставляя за собой повсюду яркие следы своих приключений. Недотепа и бедолага, мистер Бин снимает о своих неудачах любительский видеофильм, который умудряется даже показать на большом экране Каннского фестиваля.
Релиз группы
Качество: BDRip / рип с Blu-ray Disc 1080p CEE
Формат: MP4
Видео кодек: H.264
Аудио кодек: AAC
Видео: 960x520 AR:1.85 1814 kbps 23.976 fps
Аудио №1: [Russian] 2ch 48 kHz 128 kbps - Профессиональный (полное дублирование) R5
Аудио №1: [Ukrainian] 2ch 48 kHz 128 kbps - Профессиональный (многоголосый, закадровый) НЛО TV
Аудио №2: [English] 2ch 48 kHz 128 kbps - Оригинал
<div class="sp-wrap">
<div class="sp-head folded">Logx264</div>
<div class="sp-body">avs [info]: 960x520p 1:1 @ 2997/125 fps (cfr)
x264 [info]: using SAR=1/1
x264 [info]: using cpu capabilities: MMX2 SSE2Fast SSSE3 SSE4.2 AVX FMA3 AVX2 LZCNT BMI2
x264 [info]: profile High, level 4.1

x264 [info]: frame I:1155 Avg QP:21.39 size: 59636
x264 [info]: frame P:30899 Avg QP:23.32 size: 18063
x264 [info]: frame B:96812 Avg QP:25.68 size: 6109
x264 [info]: consecutive B-frames: 2.6% 3.0% 8.0% 41.9% 14.0% 24.8% 2.0% 2.8% 1.0%
x264 [info]: mb I I16..4: 7.6% 72.2% 20.2%
x264 [info]: mb P I16..4: 0.9% 9.3% 1.5% P16..4: 29.8% 32.7% 10.8% 0.0% 0.0% skip:15.1%
x264 [info]: mb B I16..4: 0.1% 1.1% 0.1% B16..8: 35.0% 17.2% 3.1% direct: 4.3% skip:39.1% L0:43.0% L1:45.7% BI:11.3%
x264 [info]: 8x8 transform intra:78.6% inter:65.7%
x264 [info]: coded y,uvDC,uvAC intra: 85.2% 81.0% 50.4% inter: 19.5% 12.7% 1.9%
x264 [info]: i16 v,h,dc,p: 17% 21% 8% 54%
x264 [info]: i8 v,h,dc,ddl,ddr,vr,hd,vl,hu: 11% 7% 5% 10% 14% 13% 15% 12% 13%
x264 [info]: i4 v,h,dc,ddl,ddr,vr,hd,vl,hu: 14% 9% 5% 8% 14% 14% 14% 10% 12%
x264 [info]: i8c dc,h,v,p: 34% 27% 20% 19%
x264 [info]: Weighted P-Frames: Y:13.3% UV:8.3%
x264 [info]: ref P L0: 48.1% 13.8% 16.1% 5.7% 4.9% 3.6% 3.3% 2.0% 2.1% 0.3% 0.0%
x264 [info]: ref B L0: 78.6% 9.2% 4.5% 2.4% 2.5% 1.5% 1.0% 0.3%
x264 [info]: ref B L1: 95.3% 4.7%
x264 [info]: kb/s:1813.56

encoded 128866 frames, 11.52 fps, 1813.56 kb/s
GeneralComplete name : D:\Torrents\Bean Dilogy.1997-2007.BDRip.x264.960x\Mr. Bean's Holiday.2007.BDRip.x264.960x.rip by Frost O.S.mp4Format : MPEG-4Format profile : Base MediaCodec ID : isom (isom/avc1/iso2)File size : 1.38 GiBDuration : 1 h 29 minOverall bit rate mode : VariableOverall bit rate : 2 213 kb/sMovie name : Mr Bean's Holiday 2007 BDRip x264 960x rip by Frost O SDirector : Стив Бенделак / Steve BendelackActor : Роуэн Эткинсон / Стив Пембертон / Лили Эткинсон / Престон Найман / Sharlit Deyzac / Francois Touch / Эмма де Кон / Арсен Моска / Стефан Дебак / Уиллем ДефоGenre : ComedyContentType : Short FilmEncoded date : UTC 2017-03-10 16:32:20Tagged date : UTC 2017-03-10 16:34:01Writing application : MkvToMp4 version: 0.224 (x64)Cover : YesComment : rip by Frost O.SLongDescription : Мистер Бин отправляется на отдых на юг Франции, оставляя за собой повсюду яркие следы своих приключений. Недотепа и бедолага, мистер Бин снимает о своих неудачах любительский видеофильм, который умудряется даже показать на большом экране Каннского фестиваля.

VideoID : 1Format : AVCFormat/Info : Advanced Video CodecFormat profile : [email protected] settings, CABAC : YesFormat settings, ReFrames : 9 framesCodec ID : avc1Codec ID/Info : Advanced Video CodingDuration : 1 h 29 minBit rate : 1 814 kb/sMaximum bit rate : 7 463 kb/sWidth : 960 pixelsHeight : 520 pixelsDisplay aspect ratio : 1.85:1Frame rate mode : ConstantFrame rate : 23.976 (24000/1001) FPSOriginal frame rate : 23.976 (23976/1000) FPSColor space : YUVChroma subsampling : 4:2:0Bit depth : 8 bitsScan type : ProgressiveBits/(Pixel*Frame) : 0.152Stream size : 1.13 GiB (82%)Writing library : x264 core 148 r2744 b97ae06Encoding settings : cabac=1 / ref=9 / deblock=1:-2:-1 / analyse=0x3:0x113 / me=umh / subme=11 / psy=1 / psy_rd=1.00:0.00 / mixed_ref=1 / me_range=32 / chroma_me=1 / trellis=2 / 8x8dct=1 / cqm=0 / deadzone=21,11 / fast_pskip=1 / chroma_qp_offset=-2 / threads=6 / lookahead_threads=1 / sliced_threads=0 / nr=0 / decimate=1 / interlaced=0 / bluray_compat=0 / constrained_intra=0 / bframes=8 / b_pyramid=2 / b_adapt=2 / b_bias=0 / direct=1 / weightb=1 / open_gop=0 / weightp=2 / keyint=250 / keyint_min=23 / scenecut=40 / intra_refresh=0 / rc=crf / mbtree=0 / crf=20.4 / qcomp=0.60 / qpmin=0 / qpmax=69 / qpstep=4 / ip_ratio=1.40 / pb_ratio=1.30 / aq=2:0.90Language : EnglishEncoded date : UTC 2017-03-10 16:32:20Tagged date : UTC 2017-03-10 16:32:57Color range : LimitedColor primaries : BT.709Transfer characteristics : BT.709Matrix coefficients : BT.709

Audio #1ID : 2Format : AACFormat/Info : Advanced Audio CodecFormat profile : LCCodec ID : 40Duration : 1 h 29 minBit rate mode : VariableBit rate : 128 kb/sMaximum bit rate : 135 kb/sChannel(s) : 2 channelsChannel positions : Front: L RSampling rate : 48.0 kHzFrame rate : 46.875 FPS (1024 spf)Compression mode : LossyStream size : 82.0 MiB (6%)Title : Dub_ R5 / Dub_ R5Language : RussianDefault : YesAlternate group : 1Encoded date : UTC 2017-03-10 16:32:37Tagged date : UTC 2017-03-10 16:32:57

Audio #2ID : 3Format : AACFormat/Info : Advanced Audio CodecFormat profile : LCCodec ID : 40Duration : 1 h 29 minBit rate mode : VariableBit rate : 128 kb/sMaximum bit rate : 132 kb/sChannel(s) : 2 channelsChannel positions : Front: L RSampling rate : 48.0 kHzFrame rate : 46.875 FPS (1024 spf)Compression mode : LossyStream size : 82.0 MiB (6%)Title : MVO_ NLO TV / MVO_ NLO TVLanguage : UkrainianDefault : NoAlternate group : 1Encoded date : UTC 2017-03-10 16:32:47Tagged date : UTC 2017-03-10 16:32:57

Audio #3ID : 4Format : AACFormat/Info : Advanced Audio CodecFormat profile : LCCodec ID : 40Duration : 1 h 29 minBit rate mode : VariableBit rate : 128 kb/sMaximum bit rate : 135 kb/sChannel(s) : 2 channelsChannel positions : Front: L RSampling rate : 48.0 kHzFrame rate : 46.875 FPS (1024 spf)Compression mode : LossyStream size : 82.0 MiB (6%)Title : Original / OriginalLanguage : EnglishDefault : NoAlternate group : 1Encoded date : UTC 2017-03-10 16:32:51Tagged date : UTC 2017-03-10 16:32:57

Text #1ID : 5Format : Timed TextMuxing mode : sbtlCodec ID : tx3gDuration : 1 h 29 minBit rate mode : VariableBit rate : 1 b/sStream size : 661 Bytes (0%)Title : Forced / ForcedLanguage : RussianDefault : YesForced : NoAlternate group : 2Encoded date : UTC 2017-03-10 16:32:57Tagged date : UTC 2017-03-10 16:32:57

Text #2ID : 6Format : Timed TextMuxing mode : sbtlCodec ID : tx3gDuration : 1 h 19 minBit rate mode : VariableBit rate : 17 b/sStream size : 9.66 KiB (0%)Title : Full / FullLanguage : UkrainianDefault : NoForced : NoAlternate group : 2Encoded date : UTC 2017-03-10 16:32:57Tagged date : UTC 2017-03-10 16:32:57

Text #3ID : 7Format : Timed TextMuxing mode : sbtlCodec ID : tx3gDuration : 1 h 11 minBit rate mode : VariableBit rate : 5 b/sStream size : 2.75 KiB (0%)Title : Forced / ForcedLanguage : EnglishDefault : NoForced : NoAlternate group : 2Encoded date : UTC 2017-03-10 16:32:57Tagged date : UTC 2017-03-10 16:32:57

Text #4ID : 8Format : Timed TextMuxing mode : sbtlCodec ID : tx3gDuration : 1 h 21 minBit rate mode : VariableBit rate : 22 b/sStream size : 13.3 KiB (0%)Title : Full / FullLanguage : EnglishDefault : NoForced : NoAlternate group : 2Encoded date : UTC 2017-03-10 16:32:57Tagged date : UTC 2017-03-10 16:32:57
</div>
</div>

Трекер:  [ 10-Мар-2017 19:00 ]

  

Скачать .torrent

Размер .torrent файла 15 KB


Размер: 2.88 GB
Хэш (hash) релиза: e36d8a038dabcf5e2bc8685993c34a48a850f938

Еще никто не оставлял запись к записи скачать торрент [VIDEO] Мистер Бин: Дилогия Bean: Dilogy . Будь первым!

!Обратная связь