OpenLoadHD | Mathilde Seigner | Our Souls at Night

Скачать через торрент [VIDEO] Палата The Ward бесплатно русская версия torrent активатор

Статистика раздачи
Размер:  1.62 GB   |    Зарегистрирован:  1 год 4 месяца   |    .torrent скачан:  26 раз   |   
Раздают:  1  
   
загрузка...
 
Автор Сообщение

Galfimbul

avatar Galfimbul


Палата / The Ward
«Only Sanity Can Keep You Alive»
Год выпуска: 2010
Оригинальное название: The Ward
Страна: США
Жанр: ужасы
Возраст: 16+

Режиссер: Джон Карпентер / John Carpenter

В ролях: Эмбер Хёрд, Линдси Фонсека, Даниэль Панабэйкер, Джаред Харрис, Мэми Гаммер, Мика Бурем, Рейла Афродит, Шон Кук, Лора Ли, Сидни Свини

Описание Палата (2010): Кристен проходит лечение в психиатрической лечебнице. Вместе с ней проходят лечение еще четыре девушки. По ночам, когда больница погружается во тьму, она слышит странные пугающие звуки и понимает, что они тут не одни. Одна за другой девушки начинают исчезать, и Кристен понимает, что должна как можно скорее выбраться отсюда. Пытаясь сбежать, она понимает, что истинная природа звуков намного ужаснее, чем могло показаться вначале.

Продолжительность: 01:28:55
Перевод: Дублированный [R5]
Оригинальная дорожка: нет

Автор рипа:

Качество видео: BDRip Исходник: Blu-Ray Remux (1080p) Формат: mp4
Видео кодек: MPEG-4 AVC Аудио кодек: AAC
Видео: 1280x546 (2.35:1) at 23.976 fps, AVC at 2 469 kbps avg, 0.147 bit/pixel
Аудио №1 Rus: 48.0 KHz, AAC, 2 ch, 128.0 Kbps
Субтитры: нет
Навигация по главам: есть
Размер: 1.62 GiB
avs [info]: 1280x546p 1:1 @ 24000/1001 fps (cfr)
x264 [info]: using SAR=1/1
x264 [info]: using cpu capabilities: MMX2 SSE2Fast SSSE3 Cache64
x264 [info]: profile High, level 4.1
x264 [info]: frame I:1205 Avg QP:17.31 size: 77642
x264 [info]: frame P:25142 Avg QP:20.38 size: 24872
x264 [info]: frame B:101575 Avg QP:21.61 size: 9132
x264 [info]: consecutive B-frames: 2.0% 1.3% 3.8% 10.4% 15.4% 60.3% 6.8%
x264 [info]: mb I I16..4: 5.5% 80.4% 14.1%
x264 [info]: mb P I16..4: 1.6% 9.6% 1.1% P16..4: 46.7% 20.7% 14.8% 0.0% 0.0% skip: 5.4%
x264 [info]: mb B I16..4: 0.1% 0.9% 0.1% B16..8: 49.9% 8.1% 1.6% direct: 4.4% skip:34.9% L0:46.3% L1:49.7% BI: 4.0%
x264 [info]: 8x8 transform intra:79.6% inter:66.1%
x264 [info]: coded y,uvDC,uvAC intra: 76.5% 60.6% 18.1% inter: 22.6% 20.1% 0.2%
x264 [info]: i16 v,h,dc,p: 37% 17% 8% 39%
x264 [info]: i8 v,h,dc,ddl,ddr,vr,hd,vl,hu: 21% 11% 28% 5% 7% 8% 7% 7% 6%
x264 [info]: i4 v,h,dc,ddl,ddr,vr,hd,vl,hu: 34% 14% 14% 6% 8% 8% 7% 6% 4%
x264 [info]: i8c dc,h,v,p: 56% 19% 20% 5%
x264 [info]: Weighted P-Frames: Y:6.7% UV:4.1%
x264 [info]: ref P L0: 45.4% 10.3% 18.6% 7.4% 5.8% 4.4% 3.8% 2.1% 2.0% 0.3% 0.0%
x264 [info]: ref B L0: 72.1% 12.6% 6.6% 3.1% 2.3% 1.9% 1.0% 0.3%
x264 [info]: ref B L1: 91.8% 8.2%
x264 [info]: kb/s:2468.79
encoded 127922 frames, 2.34 fps, 2468.79 kb/s
GeneralFormat : MPEG-4Format profile : Base MediaCodec ID : isom (isom/avc1/iso6)File size : 1.62 GiBDuration : 1 h 28 minOverall bit rate mode : VariableOverall bit rate : 2 605 kb/sMovie name : Палата | KinoGadgetPerformer : Джон КарпентерDirector : Джон КарпентерActor : Эмбер Хёрд / Линдси Фонсека / Даниэль Панабэйкер / Джаред Харрис / Мэми Гаммер / Мика Бурем / Рейла Афродит / Шон Кук / Лора Ли / Сидни СвиниScreenplay by : Майкл Расмуссен / Шон РасмуссенProducer : Питер Блок / Даг Манкофф / Майк МаркусGenre : HorrorContentType : Short FilmRecorded date : 2010Encoded date : UTC 2017-03-10 03:08:24Tagged date : UTC 2017-03-10 04:59:03Cover : YesContentRating : mpaa|R|400|LongDescription : Кристен проходит лечение в психиатрической лечебнице. Вместе с ней проходят лечение еще четыре девушки. По ночам, когда больница погружается во тьму, она слышит странные пугающие звуки и понимает, что они тут не одни. Одна за другой девушки начинают исчезать, и Кристен понимает, что должна как можно скорее выбраться отсюда. Пытаясь сбежать, она понимает, что истинная природа звуков намного ужаснее, чем могло показаться вначале.HDVideo : Yes

VideoID : 1Format : AVCFormat/Info : Advanced Video CodecFormat profile : [email protected] settings, CABAC : YesFormat settings, ReFrames : 9 framesCodec ID : avc1Codec ID/Info : Advanced Video CodingDuration : 1 h 28 minBit rate : 2 469 kb/sMaximum bit rate : 11.5 Mb/sWidth : 1 280 pixelsHeight : 546 pixelsDisplay aspect ratio : 2.35:1Frame rate mode : ConstantFrame rate : 23.976 (24000/1001) FPSColor space : YUVChroma subsampling : 4:2:0Bit depth : 8 bitsScan type : ProgressiveBits/(Pixel*Frame) : 0.147Stream size : 1.53 GiB (95%)Writing library : x264 core 148 r2638 7599210Encoding settings : cabac=1 / ref=9 / deblock=1:-2:-2 / analyse=0x3:0x113 / me=umh / subme=7 / psy=1 / psy_rd=1.00:0.00 / mixed_ref=1 / me_range=32 / chroma_me=1 / trellis=2 / 8x8dct=1 / cqm=0 / deadzone=21,11 / fast_pskip=0 / chroma_qp_offset=-2 / threads=3 / lookahead_threads=1 / sliced_threads=0 / nr=0 / decimate=1 / interlaced=0 / bluray_compat=0 / constrained_intra=0 / bframes=6 / b_pyramid=2 / b_adapt=2 / b_bias=0 / direct=1 / weightb=1 / open_gop=0 / weightp=2 / keyint=250 / keyint_min=25 / scenecut=40 / intra_refresh=0 / rc_lookahead=60 / rc=crf / mbtree=1 / crf=20.0 / qcomp=0.60 / qpmin=0 / qpmax=69 / qpstep=4 / vbv_maxrate=62500 / vbv_bufsize=78125 / crf_max=0.0 / nal_hrd=none / filler=0 / ip_ratio=1.40 / aq=1:1.00Encoded date : UTC 2017-03-10 03:08:24Tagged date : UTC 2017-03-10 03:09:25

AudioID : 2Format : AACFormat/Info : Advanced Audio CodecFormat profile : LCCodec ID : 40Duration : 1 h 28 minBit rate mode : VariableBit rate : 128 kb/sMaximum bit rate : 135 kb/sChannel(s) : 2 channelsChannel positions : Front: L RSampling rate : 48.0 kHzFrame rate : 46.875 FPS (1024 spf)Compression mode : LossyStream size : 81.4 MiB (5%)Title : DubLanguage : RussianEncoded date : UTC 2017-03-09 11:48:52Tagged date : UTC 2017-03-10 03:09:25

Menu00:00:00.000 : 00:00:00.00000:07:29.157 : 00:07:29.15700:13:29.475 : 00:13:29.47500:20:24.265 : 00:20:24.26500:28:27.706 : 00:28:27.70600:38:38.024 : 00:38:38.02400:42:20.455 : 00:42:20.45500:50:58.931 : 00:50:58.93100:56:31.972 : 00:56:31.97201:05:56.286 : 01:05:56.28601:11:34.749 : 01:11:34.74901:24:30.649 : 01:24:30.649


Трекер:  [ 10-Мар-2017 07:30 ]

  

Скачать .torrent

Размер .torrent файла 16 KB


Размер: 1.62 GB
Хэш (hash) релиза: b5107fca9d5100abc9e913a06046706f7c061264

Еще никто не оставлял запись к записи скачать торрент [VIDEO] Палата The Ward . Будь первым!

!Обратная связь