George Blagden | Karen Seacombe | Talker - Crime - 晚吹 - 罪光燈Talker - Crime

Скачать через торрент [VIDEO] Марсианин The Martian бесплатно русская версия torrent активатор

Статистика раздачи
Размер:  1.77 GB   |    Зарегистрирован:  1 год 4 месяца   |    .torrent скачан:  59 раз   |   
Раздают:  1  
   
загрузка...
 
Автор Сообщение

Galfimbul

avatar Galfimbul


Марсианин / The Martian (Theatrical Cut)
«Верните его домой»

Год выпуска: 2015
Страна: США, Великобритания / 20th Century Fox Film Corporation
Жанр: фантастика, приключения
Продолжительность: 02:21:38
Перевод №1: Русский Профессиональный (полное дублирование) Лицензия, Blu-ray 3D EUR
Перевод №2: Украинский Профессиональный (полное дублирование) Лицензия, Blu-ray 3D EUR
Оригинальная дорожка: Есть
Cубтитры: русские (форсированные, полные), украинские (форсированные, полные), английские (форсированные, полные)
Режиссер: Ридли Скотт / Ridley Scott
В ролях: Мэтт Дэймон (Mark Watney), Джессика Честейн (Melissa Lewis), Чиветель Эджиофор (Vincent Kapoor), Кристен Уиг (Annie Montrose), Джефф Дэниелс (Teddy Sanders), Майкл Пенья (Rick Martinez), Шон Бин (Mitch Henderson), Кейт Мара (Beth Johanssen), Себастьян Стэн (Chris Beck), Аксель Хенни (Alex Vogel), Бенедикт Вонг (Bruce Ng), Маккензи Дэвис (Mindy Park), Дональд Гловер (Rich Purnell) и другие .
Описание: Марсианская миссия «Арес-3» в процессе работы была вынуждена экстренно покинуть планету из-за надвигающейся песчаной бури. Инженер и биолог Марк Уотни получил повреждение скафандра во время песчаной бури. Сотрудники миссии, посчитав его погибшим, эвакуировались с планеты, оставив Марка одного.
Очнувшись, Уотни обнаруживает, что связь с Землёй отсутствует, но при этом полностью функционирует жилой модуль. Главный герой начинает искать способ продержаться на имеющихся запасах еды, витаминов, воды и воздуха ещё 4 года до прилёта следующей миссии «Арес-4»..
Релиз группы
Качество: BDRip / рип с Blu-ray Disc 1080p EUR
Формат: MP4
Видео кодек: H.264
Аудио кодек: AAC
Видео: 960х400 AR:2.40 1395 kbps 23.976 fps
Аудио №1: [Russian] 2ch 48 kHz 128 kbps - Профессиональный (полное дублирование) Лицензия, Blu-ray 3D EUR
Аудио №2: [Ukrainian] 2ch 48 kHz 128 kbps - Профессиональный (полное дублирование) Лицензия, Blu-ray 3D EUR
Аудио №3: [English] 2ch 48 kHz 128 kbps - Оригинал
avs [info]: 960x400p 1:1 @ 2997/125 fps (cfr)
x264 [info]: using SAR=1/1
x264 [info]: using cpu capabilities: MMX2 SSE2Fast SSSE3 SSE4.2 AVX FMA3 AVX2 LZCNT BMI2
x264 [info]: profile High, level 4.1

x264 [info]: frame I:2080 Avg QP:15.43 size: 65172
x264 [info]: frame P:51845 Avg QP:19.50 size: 14700
x264 [info]: frame B:149813 Avg QP:21.56 size: 3896
x264 [info]: consecutive B-frames: 4.4% 6.2% 9.6% 25.3% 20.5% 24.8% 5.1% 2.6% 1.6%
x264 [info]: mb I I16..4: 4.6% 64.3% 31.1%
x264 [info]: mb P I16..4: 0.5% 4.9% 1.2% P16..4: 34.1% 35.0% 12.4% 0.0% 0.0% skip:11.9%
x264 [info]: mb B I16..4: 0.0% 0.4% 0.1% B16..8: 32.8% 16.6% 2.6% direct: 3.4% skip:44.1% L0:39.8% L1:45.0% BI:15.1%
x264 [info]: 8x8 transform intra:71.1% inter:54.1%
x264 [info]: direct mvs spatial:96.0% temporal:4.0%
x264 [info]: coded y,uvDC,uvAC intra: 88.2% 79.8% 58.1% inter: 17.1% 12.1% 5.8%
x264 [info]: i16 v,h,dc,p: 27% 16% 7% 50%
x264 [info]: i8 v,h,dc,ddl,ddr,vr,hd,vl,hu: 9% 9% 7% 10% 14% 13% 13% 12% 14%
x264 [info]: i4 v,h,dc,ddl,ddr,vr,hd,vl,hu: 11% 10% 5% 10% 15% 13% 13% 11% 13%
x264 [info]: i8c dc,h,v,p: 40% 27% 18% 15%
x264 [info]: Weighted P-Frames: Y:4.0% UV:1.9%
x264 [info]: ref P L0: 54.0% 11.1% 15.2% 5.9% 4.8% 3.7% 3.1% 2.0% 0.2% 0.0%
x264 [info]: ref B L0: 79.2% 10.2% 4.9% 2.4% 1.7% 1.1% 0.5%
x264 [info]: ref B L1: 95.1% 4.9%
x264 [info]: kb/s:1394.59

encoded 203738 frames, 16.99 fps, 1394.59 kb/s
GeneralComplete name : D:\Torrents\The Martian.[Theatrical Cut].2015.BDRip.x264.960x.rip by Frost O.S.mp4Format : MPEG-4Format profile : Base MediaCodec ID : isom (isom/avc1/iso2)File size : 1.77 GiBDuration : 2 h 21 minOverall bit rate mode : VariableOverall bit rate : 1 794 kb/sMovie name : The Martian [Theatrical Cut] 2015 BDRip x264 960x rip by Frost O SDirector : Ридли Скотт / Ridley ScottActor : Мэтт Дэймон (Mark Watney) / Джессика Честейн (Melissa Lewis) / Чиветель Эджиофор (Vincent Kapoor) / Кристен Уиг (Annie Montrose) / Джефф Дэниелс (Teddy Sanders) / Майкл Пенья (Rick Martinez) / Шон Бин (Mitch Henderson) / Кейт Мара (Beth Johanssen) / Себастьян Стэн (Chris Beck) / Аксель Хенни (Alex Vogel) / Бенедикт Вонг (Bruce Ng) / Маккензи Дэвис (Mindy Park) / Дональд Гловер (Rich Purnell)Genre : FantasyContentType : Short FilmEncoded date : UTC 2017-03-09 17:04:04Tagged date : UTC 2017-03-09 17:07:44Writing application : MkvToMp4 version: 0.224 (x64)Cover : YesComment : rip by Frost O.SLongDescription : Марсианская миссия «Арес-3» в процессе работы была вынуждена экстренно покинуть планету из-за надвигающейся песчаной бури. Инженер и биолог Марк Уотни получил повреждение скафандра во время песчаной бури. Сотрудники миссии, посчитав его погибшим, эвакуировались с планеты, оставив Марка одного. Очнувшись, Уотни обнаруживает, что связь с Землёй отсутствует, но при этом полностью функционирует жилой модуль. Главный герой начинает искать способ продержаться на имеющихся запасах еды, витаминов, воды и воздуха ещё 4 года до прилёта следующей миссии «Арес-4»..

VideoID : 1Format : AVCFormat/Info : Advanced Video CodecFormat profile : [email protected] settings, CABAC : YesFormat settings, ReFrames : 8 framesCodec ID : avc1Codec ID/Info : Advanced Video CodingDuration : 2 h 21 minBit rate : 1 395 kb/sMaximum bit rate : 5 346 kb/sWidth : 960 pixelsHeight : 400 pixelsDisplay aspect ratio : 2.40:1Frame rate mode : ConstantFrame rate : 23.976 (24000/1001) FPSOriginal frame rate : 23.976 (23976/1000) FPSColor space : YUVChroma subsampling : 4:2:0Bit depth : 8 bitsScan type : ProgressiveBits/(Pixel*Frame) : 0.152Stream size : 1.38 GiB (78%)Writing library : x264 core 148 r2744 b97ae06Encoding settings : cabac=1 / ref=8 / deblock=1:-2:-2 / analyse=0x3:0x113 / me=umh / subme=11 / psy=1 / psy_rd=0.90:0.00 / mixed_ref=1 / me_range=32 / chroma_me=1 / trellis=2 / 8x8dct=1 / cqm=0 / deadzone=21,11 / fast_pskip=0 / chroma_qp_offset=-2 / threads=6 / lookahead_threads=1 / sliced_threads=0 / nr=0 / decimate=0 / interlaced=0 / bluray_compat=0 / constrained_intra=0 / bframes=8 / b_pyramid=2 / b_adapt=2 / b_bias=0 / direct=3 / weightb=1 / open_gop=0 / weightp=2 / keyint=250 / keyint_min=23 / scenecut=40 / intra_refresh=0 / rc_lookahead=60 / rc=2pass / mbtree=0 / bitrate=1395 / ratetol=1.0 / qcomp=0.70 / qpmin=0 / qpmax=69 / qpstep=4 / cplxblur=20.0 / qblur=0.5 / vbv_maxrate=50000 / vbv_bufsize=62500 / nal_hrd=none / filler=0 / ip_ratio=1.40 / pb_ratio=1.30 / aq=3:0.70Language : EnglishEncoded date : UTC 2017-03-09 17:04:04Tagged date : UTC 2017-03-09 17:05:34Color range : LimitedColor primaries : BT.709Transfer characteristics : BT.709Matrix coefficients : BT.709

Audio #1ID : 2Format : AACFormat/Info : Advanced Audio CodecFormat profile : LCCodec ID : 40Duration : 2 h 21 minBit rate mode : VariableBit rate : 128 kb/sMaximum bit rate : 135 kb/sChannel(s) : 2 channelsChannel positions : Front: L RSampling rate : 48.0 kHzFrame rate : 46.875 FPS (1024 spf)Compression mode : LossyStream size : 130 MiB (7%)Title : Dub_ Blu_ray 3D EUR / Dub_ Blu_ray 3D EURLanguage : RussianDefault : YesAlternate group : 1Encoded date : UTC 2017-03-09 17:05:04Tagged date : UTC 2017-03-09 17:05:34

Audio #2ID : 3Format : AACFormat/Info : Advanced Audio CodecFormat profile : LCCodec ID : 40Duration : 2 h 21 minBit rate mode : VariableBit rate : 128 kb/sMaximum bit rate : 135 kb/sChannel(s) : 2 channelsChannel positions : Front: L RSampling rate : 48.0 kHzFrame rate : 46.875 FPS (1024 spf)Compression mode : LossyStream size : 130 MiB (7%)Title : Dub_ Blu_ray 3D EUR / Dub_ Blu_ray 3D EURLanguage : UkrainianDefault : NoAlternate group : 1Encoded date : UTC 2017-03-09 17:05:14Tagged date : UTC 2017-03-09 17:05:34

Audio #3ID : 4Format : AACFormat/Info : Advanced Audio CodecFormat profile : LCCodec ID : 40Duration : 2 h 21 minBit rate mode : VariableBit rate : 128 kb/sMaximum bit rate : 135 kb/sChannel(s) : 2 channelsChannel positions : Front: L RSampling rate : 48.0 kHzFrame rate : 46.875 FPS (1024 spf)Compression mode : LossyStream size : 130 MiB (7%)Title : Original / OriginalLanguage : EnglishDefault : NoAlternate group : 1Encoded date : UTC 2017-03-09 17:05:24Tagged date : UTC 2017-03-09 17:05:34

Text #1ID : 5Format : Timed TextMuxing mode : sbtlCodec ID : tx3gDuration : 2 h 21 minBit rate mode : VariableBit rate : 3 b/sStream size : 3.39 KiB (0%)Title : Forced_ iTunes / Forced_ iTunesLanguage : RussianDefault : YesForced : NoAlternate group : 2Encoded date : UTC 2017-03-09 17:05:33Tagged date : UTC 2017-03-09 17:05:34

Text #2ID : 6Format : Timed TextMuxing mode : sbtlCodec ID : tx3gDuration : 2 h 21 minBit rate mode : VariableBit rate : 97 b/sStream size : 100 KiB (0%)Title : iTunes / iTunesLanguage : RussianDefault : NoForced : NoAlternate group : 2Encoded date : UTC 2017-03-09 17:05:34Tagged date : UTC 2017-03-09 17:05:34

Text #3ID : 7Format : Timed TextMuxing mode : sbtlCodec ID : tx3gDuration : 2 h 21 minBit rate mode : VariableBit rate : 99 b/sStream size : 103 KiB (0%)Title : iTunes / iTunesLanguage : UkrainianDefault : NoForced : NoAlternate group : 2Encoded date : UTC 2017-03-09 17:05:34Tagged date : UTC 2017-03-09 17:05:34

Text #4ID : 8Format : Timed TextMuxing mode : sbtlCodec ID : tx3gDuration : 1 h 21 minBit rate mode : VariableBit rate : 1 b/sStream size : 592 Bytes (0%)Title : Forced_ iTunes / Forced_ iTunesLanguage : EnglishDefault : NoForced : NoAlternate group : 2Encoded date : UTC 2017-03-09 17:05:34Tagged date : UTC 2017-03-09 17:05:34

Text #5ID : 9Format : Timed TextMuxing mode : sbtlCodec ID : tx3gDuration : 2 h 15 minBit rate mode : VariableBit rate : 60 b/sStream size : 59.2 KiB (0%)Title : iTunes / iTunesLanguage : EnglishDefault : NoForced : NoAlternate group : 2Encoded date : UTC 2017-03-09 17:05:34Tagged date : UTC 2017-03-09 17:05:34


Трекер:  [ 09-Мар-2017 19:30 ]

  

Скачать .torrent

Размер .torrent файла 18 KB


Размер: 1.77 GB
Хэш (hash) релиза: 44198c4f1e49b31ff84241c1c31a2a0d4f3240a4

Торренты, похожие на [VIDEO] Марсианин The Martian скачать торрент

Форум Название Автор Размер S L Добавлен
Видео (Фильмы/Клипы) ·· [VIDEO] Марсианин / The Martian (Ридли Скотт / Ridley Scott) [2015, фантастика, приключения, HDRip] [MP4, 480x] [Theatrical Cut] Dub Galfimbul 557317679531 MB 0 0 1489081329

20:42

9-Мар-17

Видео (Фильмы/Клипы) ·· [VIDEO] Марсианин / The Martian (Ридли Скотт / Ridley Scott) [2015, фантастика, приключения, BDRip] [MP4, 1280x] Galfimbul 22546757792.1 GB 0 0 1452528532

19:08

11-Янв-16

Еще никто не оставлял запись к записи скачать торрент [VIDEO] Марсианин The Martian . Будь первым!

!Обратная связь