Barry Jackson | Shuffle! | 720p | BD | Dual Audio | Donald Trump and the Know-Nothing Movement - Understanding the 2016 US Election

Скачать через торрент [VIDEO] Марсианин The Martian бесплатно русская версия torrent активатор

Статистика раздачи
Размер:  531 MB   |    Зарегистрирован:  1 год 4 месяца   |    .torrent скачан:  30 раз   |   
Раздают:  1  
   
загрузка...
 
Автор Сообщение

Galfimbul

avatar Galfimbul


Марсианин / The Martian (Theatrical Cut)
«Верните его домой»

Год выпуска: 2015
Страна: США, Великобритания / 20th Century Fox Film Corporation
Жанр: фантастика, приключения
Продолжительность: 02:21:38
Перевод: Русский Профессиональный (полное дублирование) Лицензия, Blu-ray 3D EUR
Cубтитры: нет
Режиссер: Ридли Скотт / Ridley Scott
В ролях: Мэтт Дэймон (Mark Watney), Джессика Честейн (Melissa Lewis), Чиветель Эджиофор (Vincent Kapoor), Кристен Уиг (Annie Montrose), Джефф Дэниелс (Teddy Sanders), Майкл Пенья (Rick Martinez), Шон Бин (Mitch Henderson), Кейт Мара (Beth Johanssen), Себастьян Стэн (Chris Beck), Аксель Хенни (Alex Vogel), Бенедикт Вонг (Bruce Ng), Маккензи Дэвис (Mindy Park), Дональд Гловер (Rich Purnell) и другие .
Описание: Марсианская миссия «Арес-3» в процессе работы была вынуждена экстренно покинуть планету из-за надвигающейся песчаной бури. Инженер и биолог Марк Уотни получил повреждение скафандра во время песчаной бури. Сотрудники миссии, посчитав его погибшим, эвакуировались с планеты, оставив Марка одного.
Очнувшись, Уотни обнаруживает, что связь с Землёй отсутствует, но при этом полностью функционирует жилой модуль. Главный герой начинает искать способ продержаться на имеющихся запасах еды, витаминов, воды и воздуха ещё 4 года до прилёта следующей миссии «Арес-4»..
Релиз группы
Качество: HDRip / рип с BDRip 720p
Формат: MP4
Видео кодек: XviD
Аудио кодек: AAC
Видео: 480х200 AR:2.40 389 kbps 23.976 fps
Аудио: [Russian] 2ch 48 kHz 128 kbps - Профессиональный (полное дублирование) Лицензия, Blu-ray 3D EUR
GeneralComplete name : D:\Torrents\The Martian.[Theatrical Cut].2015.HDRip.XviD.480x.rip by Frost O.S.mp4Format : MPEG-4Format profile : Base MediaCodec ID : isom (isom/iso2)File size : 531 MiBDuration : 2 h 21 minOverall bit rate mode : VariableOverall bit rate : 525 kb/sMovie name : The Martian [Theatrical Cut] 2015 HDRip XviD 480x rip by Frost O SDirector : Ридли Скотт / Ridley ScottActor : Мэтт Дэймон (Mark Watney) / Джессика Честейн (Melissa Lewis) / Чиветель Эджиофор (Vincent Kapoor) / Кристен Уиг (Annie Montrose) / Джефф Дэниелс (Teddy Sanders) / Майкл Пенья (Rick Martinez) / Шон Бин (Mitch Henderson) / Кейт Мара (Beth Johanssen) / Себастьян Стэн (Chris Beck) / Аксель Хенни (Alex Vogel) / Бенедикт Вонг (Bruce Ng) / Маккензи Дэвис (Mindy Park) / Дональд Гловер (Rich Purnell)Genre : FantasyContentType : Short FilmEncoded date : UTC 2017-03-09 17:18:30Tagged date : UTC 2017-03-09 17:19:34Writing application : MkvToMp4 version: 0.224 (x64)Cover : YesComment : rip by Frost O.SLongDescription : Марсианская миссия «Арес-3» в процессе работы была вынуждена экстренно покинуть планету из-за надвигающейся песчаной бури. Инженер и биолог Марк Уотни получил повреждение скафандра во время песчаной бури. Сотрудники миссии, посчитав его погибшим, эвакуировались с планеты, оставив Марка одного. Очнувшись, Уотни обнаруживает, что связь с Землёй отсутствует, но при этом полностью функционирует жилой модуль. Главный герой начинает искать способ продержаться на имеющихся запасах еды, витаминов, воды и воздуха ещё 4 года до прилёта следующей миссии «Арес-4»..

VideoID : 1Format : MPEG-4 VisualFormat profile : Advanced [email protected] settings, BVOP : YesFormat settings, QPel : NoFormat settings, GMC : No warppointsFormat settings, Matrix : CustomCodec ID : 20Duration : 2 h 21 minBit rate mode : VariableBit rate : 389 kb/sMaximum bit rate : 3 053 kb/sWidth : 480 pixelsHeight : 200 pixelsDisplay aspect ratio : 2.40:1Frame rate mode : ConstantFrame rate : 23.976 (24000/1001) FPSOriginal frame rate : 23.976 (23976/1000) FPSColor space : YUVChroma subsampling : 4:2:0Bit depth : 8 bitsScan type : ProgressiveCompression mode : LossyBits/(Pixel*Frame) : 0.169Stream size : 394 MiB (74%)Title : avi_GPAC0.5.2_DEV_rev248_g39d5978_masterWriting library : XviD 1.2.1 (UTC 2008-12-04)Language : EnglishTagged date : UTC 2017-03-09 17:18:57

AudioID : 2Format : AACFormat/Info : Advanced Audio CodecFormat profile : LCCodec ID : 40Duration : 2 h 21 minBit rate mode : VariableBit rate : 128 kb/sMaximum bit rate : 135 kb/sChannel(s) : 2 channelsChannel positions : Front: L RSampling rate : 48.0 kHzFrame rate : 46.875 FPS (1024 spf)Compression mode : LossyStream size : 130 MiB (24%)Title : Dub_ Blu_ray 3D EUR / Dub_ Blu_ray 3D EURLanguage : RussianDefault : YesAlternate group : 1Encoded date : UTC 2017-03-09 17:18:54Tagged date : UTC 2017-03-09 17:18:57


Трекер:  [ 09-Мар-2017 19:30 ]

  

Скачать .torrent

Размер .torrent файла 11 KB


Размер: 531 MB
Хэш (hash) релиза: de1478a0dd2d15c36379def1d8f43fef4327a604

Торренты, похожие на [VIDEO] Марсианин The Martian скачать торрент

Форум Название Автор Размер S L Добавлен
Видео (Фильмы/Клипы) ·· [VIDEO] Марсианин / The Martian (Ридли Скотт / Ridley Scott) [2015, фантастика, приключения, BDRip] [MP4, 960x] [Theatrical Cut] Dub (Rus, Ukr), Original, Sub (rus, ukr, eng) Galfimbul 19057270231.77 GB 0 0 1489081337

20:42

9-Мар-17

Видео (Фильмы/Клипы) ·· [VIDEO] Марсианин / The Martian (Ридли Скотт / Ridley Scott) [2015, фантастика, приключения, BDRip] [MP4, 1280x] Galfimbul 22546757792.1 GB 0 0 1452528532

19:08

11-Янв-16

Еще никто не оставлял запись к записи скачать торрент [VIDEO] Марсианин The Martian . Будь первым!

!Обратная связь