Smartphones, Organizer und Sonstige | Tomb Raider (2018) 1080p | Enterprise Application Architecture with .NET Core

Скачать через торрент [VIDEO] Сноуден Snowden бесплатно русская версия torrent активатор

Статистика раздачи
Размер:  2.69 GB   |    Зарегистрирован:  1 год 4 месяца   |    .torrent скачан:  42 раза   |   
Раздают:  1  
   
загрузка...
 
Автор Сообщение

Galfimbul

avatar Galfimbul


Сноуден / Snowden
«Беги, пока можешь»
Премьера: 21 июля 2016
Оригинальное название: Snowden
Страна: Франция, Германия, США
Жанр: триллер, драма, биография
Возраст: 16+

Режиссер: Оливер Стоун / Oliver Stone

В ролях: Джозеф Гордон-Левитт, Шейлин Вудли, Мелисса Лео, Закари Куинто, Том Уилкинсон, Скотт Иствуд, Рис Иванс, Николас Кейдж, Тимоти Олифант, Джеймс Батлер

Описание: Он мечтал продолжить семейную традицию и посвятить свою жизнь служению Родине. Он безоговорочно верил в правительство США и поддерживал антитеррористическую программу. На заре его карьеры в спецслужбах никто, даже он сам, не мог бы предположить, что именно он, Эдвард Сноуден, совершит самое крупное разоблачение в мировой истории, обнародовав секретные документы, касающиеся тотальной слежки США за своими гражданами и гражданами других государств. Открыв миру глаза на правду, он навсегда закрыл для себя двери в счастливое будущее: отказался от карьеры, любимой девушки и Родины, которая назвала его предателем…

Продолжительность: 02:14:49
Перевод: Дублированный [iTunes]
Оригинальная дорожка: нет

Автор рипа:

Качество видео: BDRip Исходник: Blu-Ray Remux (1080p) Формат: mp4
Видео кодек: MPEG-4 AVC Аудио кодек: AAC
Видео: 1280x534 (2.40:1) at 23.976 fps, AVC at 2 722 kbps avg, 0.166 bit/pixel
Аудио №1 Rus: 48.0 KHz, AAC, 2 ch, 128.0 Kbps
Субтитры: нет
Навигация по главам: есть
Размер: 2.69 GiB
avs [info]: 1280x534p 1:1 @ 24000/1001 fps (cfr)
x264 [info]: using SAR=1/1
x264 [info]: using cpu capabilities: MMX2 SSE2Fast SSSE3 Cache64
x264 [info]: profile High, level 4.1
x264 [info]: frame I:1611 Avg QP:16.07 size:104823
x264 [info]: frame P:39165 Avg QP:19.34 size: 30440
x264 [info]: frame B:153167 Avg QP:21.64 size: 9085
x264 [info]: consecutive B-frames: 1.6% 1.3% 6.5% 16.0% 17.1% 45.4% 6.2% 4.0% 1.8%
x264 [info]: mb I I16..4: 9.5% 69.7% 20.8%
x264 [info]: mb P I16..4: 1.4% 8.9% 1.2% P16..4: 44.2% 23.1% 14.6% 0.0% 0.0% skip: 6.7%
x264 [info]: mb B I16..4: 0.1% 1.0% 0.1% B16..8: 42.2% 6.9% 1.7% direct: 4.7% skip:43.3% L0:43.8% L1:47.8% BI: 8.5%
x264 [info]: 8x8 transform intra:77.3% inter:69.5%
x264 [info]: coded y,uvDC,uvAC intra: 78.8% 85.5% 63.3% inter: 19.2% 26.4% 5.0%
x264 [info]: i16 v,h,dc,p: 36% 17% 6% 41%
x264 [info]: i8 v,h,dc,ddl,ddr,vr,hd,vl,hu: 20% 13% 25% 5% 8% 8% 7% 7% 7%
x264 [info]: i4 v,h,dc,ddl,ddr,vr,hd,vl,hu: 26% 17% 12% 6% 9% 9% 8% 7% 6%
x264 [info]: i8c dc,h,v,p: 51% 18% 21% 10%
x264 [info]: Weighted P-Frames: Y:3.6% UV:2.3%
x264 [info]: ref P L0: 49.1% 12.1% 17.2% 6.3% 4.9% 3.6% 3.1% 1.8% 1.7% 0.2% 0.0%
x264 [info]: ref B L0: 76.2% 11.1% 5.6% 2.6% 1.9% 1.6% 0.8% 0.3%
x264 [info]: ref B L1: 92.3% 7.7%
x264 [info]: kb/s:2722.34
encoded 193943 frames, 2.17 fps, 2722.34 kb/s
GeneralFormat : MPEG-4Format profile : Base MediaCodec ID : isom (isom/avc1/iso6)File size : 2.69 GiBDuration : 2 h 14 minOverall bit rate mode : VariableOverall bit rate : 2 858 kb/sMovie name : Сноуден | KinoGadgetPerformer : Оливер СтоунDirector : Оливер СтоунActor : Джозеф Гордон-Левитт / Шейлин Вудли / Мелисса Лео / Закари Куинто / Том Уилкинсон / Скотт Иствуд / Рис Иванс / Николас Кейдж / Тимоти Олифант / Джеймс БатлерScreenplay by : Киран Фицджералд / Оливер Стоун / Анатолий КучеренаProducer : Мориц Борман / Эрик Копелофф / Филип Шульц-ДейлеGenre : Drama, ThrillerContentType : Short FilmRecorded date : 2016Encoded date : UTC 2017-03-08 20:42:07Tagged date : UTC 2017-03-09 07:48:05Cover : YesContentRating : mpaa|R|400|LongDescription : Он мечтал продолжить семейную традицию и посвятить свою жизнь служению Родине. Он безоговорочно верил в правительство США и поддерживал антитеррористическую программу. На заре его карьеры в спецслужбах никто, даже он сам, не мог бы предположить, что именно он, Эдвард Сноуден, совершит самое крупное разоблачение в мировой истории, обнародовав секретные документы, касающиеся тотальной слежки США за своими гражданами и гражданами других государств. Открыв миру глаза на правду, он навсегда закрыл для себя двери в счастливое будущее: отказался от карьеры, любимой девушки и Родины, которая назвала его предателем…HDVideo : Yes

VideoID : 1Format : AVCFormat/Info : Advanced Video CodecFormat profile : [email protected] settings, CABAC : YesFormat settings, ReFrames : 9 framesCodec ID : avc1Codec ID/Info : Advanced Video CodingDuration : 2 h 14 minBit rate : 2 722 kb/sMaximum bit rate : 19.0 Mb/sWidth : 1 280 pixelsHeight : 534 pixelsDisplay aspect ratio : 2.40:1Frame rate mode : ConstantFrame rate : 23.976 (24000/1001) FPSColor space : YUVChroma subsampling : 4:2:0Bit depth : 8 bitsScan type : ProgressiveBits/(Pixel*Frame) : 0.166Stream size : 2.56 GiB (95%)Writing library : x264 core 148 r2638 7599210Encoding settings : cabac=1 / ref=9 / deblock=1:-2:-1 / analyse=0x3:0x113 / me=umh / subme=7 / psy=1 / psy_rd=1.00:0.00 / mixed_ref=1 / me_range=32 / chroma_me=1 / trellis=2 / 8x8dct=1 / cqm=0 / deadzone=21,11 / fast_pskip=0 / chroma_qp_offset=-2 / threads=3 / lookahead_threads=1 / sliced_threads=0 / nr=0 / decimate=1 / interlaced=0 / bluray_compat=0 / constrained_intra=0 / bframes=8 / b_pyramid=2 / b_adapt=2 / b_bias=0 / direct=1 / weightb=1 / open_gop=0 / weightp=2 / keyint=250 / keyint_min=25 / scenecut=40 / intra_refresh=0 / rc_lookahead=60 / rc=crf / mbtree=1 / crf=19.0 / qcomp=0.60 / qpmin=0 / qpmax=69 / qpstep=4 / vbv_maxrate=62500 / vbv_bufsize=78125 / crf_max=0.0 / nal_hrd=none / filler=0 / ip_ratio=1.40 / aq=1:1.00Encoded date : UTC 2017-03-08 20:42:07Tagged date : UTC 2017-03-08 20:43:42

AudioID : 2Format : AACFormat/Info : Advanced Audio CodecFormat profile : LCCodec ID : 40Duration : 2 h 14 minBit rate mode : VariableBit rate : 128 kb/sMaximum bit rate : 134 kb/sChannel(s) : 2 channelsChannel positions : Front: L RSampling rate : 48.0 kHzFrame rate : 46.875 FPS (1024 spf)Compression mode : LossyStream size : 123 MiB (4%)Title : Dub [iTunes]Language : RussianEncoded date : UTC 2017-03-07 19:47:11Tagged date : UTC 2017-03-08 20:43:42

Menu00:00:00.000 : 00:00:00.00000:07:42.379 : 00:07:42.37900:15:49.991 : 00:15:49.99100:20:06.038 : 00:20:06.03800:26:32.007 : 00:26:32.00700:30:10.976 : 00:30:10.97600:35:30.211 : 00:35:30.21100:41:42.875 : 00:41:42.87500:51:45.769 : 00:51:45.76900:59:14.301 : 00:59:14.30101:04:44.547 : 01:04:44.54701:12:47.822 : 01:12:47.82201:18:07.474 : 01:18:07.47401:25:11.398 : 01:25:11.39801:30:30.717 : 01:30:30.71701:38:11.427 : 01:38:11.42701:50:06.141 : 01:50:06.14101:57:00.472 : 01:57:00.47202:03:22.353 : 02:03:22.35302:07:49.161 : 02:07:49.161


Трекер:  [ 09-Мар-2017 10:30 ]

  

Скачать .torrent

Размер .torrent файла 14 KB


Размер: 2.69 GB
Хэш (hash) релиза: 18bed66202a3379445338c079f27ed04d1e38c65

Еще никто не оставлял запись к записи скачать торрент [VIDEO] Сноуден Snowden . Будь первым!

!Обратная связь