Elternalarm - Die Familie Parent | Private Message | Czarodziejka z Księżyca / Bishjo senshi Sailor Moon S

Скачать через торрент [VIDEO] Лимб Haunter бесплатно русская версия torrent активатор

Статистика раздачи
Размер:  1.86 GB   |    Зарегистрирован:  1 год 4 месяца   |    .torrent скачан:  26 раз   |   
Раздают:  1  
   
загрузка...
 
Автор Сообщение

Galfimbul

avatar Galfimbul


Лимб / Haunter
«Не выходи из дома. Не зови на помощь. Не пытайся вырваться»
Год выпуска: 2013
Оригинальное название: Haunter
Страна: Канада, Франция
Жанр: ужасы, триллер, детектив
Возраст: 16+

Режиссер: Винченцо Натали / Vincenzo Natali

В ролях: Эбигейл Бреслин, Питер Аутербридж, Мишель Нолден, Стивен МакХэтти, Питер ДаКуна, Элинор Цихи, Дэвид Нолл, Саманта Вайнштейн, Дэвид Хьюлетт, Сара Мэннинен

Описание Лимб (2013): Обычный дом и обычная семья, которая живет совсем никак все. Они застряли в петле времени и проживают один и тот же день. Но их дочь по имени Лиза замечает, что все происходящее в их доме, это чья то ловушка. Девочка ищет выход из этой ситуации и обнаруживает страшные вещи, которые происходили в этом доме...

Продолжительность: 01:37:12
Перевод: Дублированный
Оригинальная дорожка: нет

Автор рипа:

Качество видео: BDRip Исходник: Blu-Ray Remux (1080p) Формат: mp4
Видео кодек: MPEG-4 AVC Аудио кодек: AAC
Видео: 1280x694 (1.85:1) at 23.976 fps, AVC at 2 602 kbps avg, 0.122 bit/pixel
Аудио №1 Rus: 48.0 KHz, AAC, 2 ch, 128.0 Kbps
Субтитры: нет
Навигация по главам: есть
Размер: 1.86 GiB
avs [info]: 1280x694p 1:1 @ 24000/1001 fps (cfr)
x264 [info]: using SAR=1/1
x264 [info]: using cpu capabilities: MMX2 SSE2Fast SSSE3 Cache64
x264 [info]: profile High, level 4.1
x264 [info]: frame I:1109 Avg QP:13.62 size: 89393
x264 [info]: frame P:28394 Avg QP:16.94 size: 26845
x264 [info]: frame B:110345 Avg QP:18.19 size: 9384
x264 [info]: consecutive B-frames: 2.6% 1.7% 5.8% 8.6% 11.6% 59.2% 4.5% 3.9% 2.0%
x264 [info]: mb I I16..4: 10.6% 72.8% 16.6%
x264 [info]: mb P I16..4: 3.5% 10.5% 1.2% P16..4: 42.6% 18.9% 13.8% 0.0% 0.0% skip: 9.5%
x264 [info]: mb B I16..4: 0.2% 0.6% 0.1% B16..8: 43.7% 6.7% 1.3% direct: 4.6% skip:42.8% L0:47.0% L1:49.3% BI: 3.7%
x264 [info]: 8x8 transform intra:70.0% inter:64.7%
x264 [info]: coded y,uvDC,uvAC intra: 55.5% 64.3% 37.4% inter: 17.4% 20.7% 1.5%
x264 [info]: i16 v,h,dc,p: 45% 21% 6% 28%
x264 [info]: i8 v,h,dc,ddl,ddr,vr,hd,vl,hu: 21% 12% 34% 4% 6% 6% 5% 6% 5%
x264 [info]: i4 v,h,dc,ddl,ddr,vr,hd,vl,hu: 31% 16% 20% 5% 7% 7% 5% 5% 3%
x264 [info]: i8c dc,h,v,p: 58% 16% 20% 6%
x264 [info]: Weighted P-Frames: Y:8.7% UV:6.1%
x264 [info]: ref P L0: 45.4% 5.9% 18.1% 8.9% 6.4% 5.4% 4.3% 2.7% 2.4% 0.4% 0.0%
x264 [info]: ref B L0: 70.7% 12.2% 7.0% 3.5% 2.7% 2.2% 1.3% 0.4%
x264 [info]: ref B L1: 91.2% 8.8%
x264 [info]: kb/s:2601.59
encoded 139848 frames, 1.74 fps, 2601.59 kb/s
GeneralFormat : MPEG-4Format profile : Base MediaCodec ID : isom (isom/avc1/iso6)File size : 1.86 GiBDuration : 1 h 37 minOverall bit rate mode : VariableOverall bit rate : 2 737 kb/sMovie name : Лимб | KinoGadgetPerformer : Винченцо НаталиDirector : Винченцо НаталиActor : Эбигейл Бреслин / Питер Аутербридж / Мишель Нолден / Стивен МакХэтти / Питер ДаКуна / Элинор Цихи / Дэвид Нолл / Саманта Вайнштейн / Дэвид Хьюлетт / Сара МэнниненScreenplay by : Брайан КингProducer : Стивен Хобан / Венсан Мараваль / Винченцо НаталиGenre : Horror, Mystery, ThrillerContentType : Short FilmRecorded date : 2013Encoded date : UTC 2017-03-07 11:36:10Tagged date : UTC 2017-03-09 07:24:23Cover : YesContentRating : mpaa|R|400|LongDescription : На первый взгляд Лиза, её младший брат и их родители — совершенно обыкновенная семья, ведущая спокойную, размеренную жизнь. Но никто, кроме девочки, не подозревает, что они проживают один и тот же день уже не первый раз.HDVideo : Yes

VideoID : 1Format : AVCFormat/Info : Advanced Video CodecFormat profile : [email protected] settings, CABAC : YesFormat settings, ReFrames : 9 framesCodec ID : avc1Codec ID/Info : Advanced Video CodingDuration : 1 h 37 minBit rate : 2 602 kb/sMaximum bit rate : 19.9 Mb/sWidth : 1 280 pixelsHeight : 694 pixelsDisplay aspect ratio : 1.85:1Frame rate mode : ConstantFrame rate : 23.976 (24000/1001) FPSColor space : YUVChroma subsampling : 4:2:0Bit depth : 8 bitsScan type : ProgressiveBits/(Pixel*Frame) : 0.122Stream size : 1.77 GiB (95%)Writing library : x264 core 148 r2638 7599210Encoding settings : cabac=1 / ref=9 / deblock=1:-2:-1 / analyse=0x3:0x113 / me=umh / subme=7 / psy=1 / psy_rd=1.00:0.00 / mixed_ref=1 / me_range=32 / chroma_me=1 / trellis=2 / 8x8dct=1 / cqm=0 / deadzone=21,11 / fast_pskip=0 / chroma_qp_offset=-2 / threads=3 / lookahead_threads=1 / sliced_threads=0 / nr=0 / decimate=1 / interlaced=0 / bluray_compat=0 / constrained_intra=0 / bframes=8 / b_pyramid=2 / b_adapt=2 / b_bias=0 / direct=1 / weightb=1 / open_gop=0 / weightp=2 / keyint=250 / keyint_min=25 / scenecut=40 / intra_refresh=0 / rc_lookahead=60 / rc=crf / mbtree=1 / crf=18.0 / qcomp=0.60 / qpmin=0 / qpmax=69 / qpstep=4 / vbv_maxrate=62500 / vbv_bufsize=78125 / crf_max=0.0 / nal_hrd=none / filler=0 / ip_ratio=1.40 / aq=1:1.00Encoded date : UTC 2017-03-07 11:36:10Tagged date : UTC 2017-03-07 11:45:41

AudioID : 2Format : AACFormat/Info : Advanced Audio CodecFormat profile : LCCodec ID : 40Duration : 1 h 37 minBit rate mode : VariableBit rate : 128 kb/sMaximum bit rate : 134 kb/sChannel(s) : 2 channelsChannel positions : Front: L RSampling rate : 48.0 kHzFrame rate : 46.875 FPS (1024 spf)Compression mode : LossyStream size : 88.9 MiB (5%)Title : DubLanguage : RussianEncoded date : UTC 2017-03-06 13:10:18Tagged date : UTC 2017-03-07 11:45:41

Menu00:00:00.000 : Chapter 100:08:44.440 : Chapter 200:15:24.548 : Chapter 300:24:53.992 : Chapter 400:34:01.998 : Chapter 500:43:54.548 : Chapter 600:49:27.422 : Chapter 700:58:12.655 : Chapter 801:05:41.979 : Chapter 901:13:45.587 : Chapter 1001:24:14.340 : Chapter 1101:34:06.182 : Chapter 12


Трекер:  [ 09-Мар-2017 10:00 ]

  

Скачать .torrent

Размер .torrent файла 19 KB


Размер: 1.86 GB
Хэш (hash) релиза: 6a8a2a8527b1af8d20871e1c451b428563f9d542

Еще никто не оставлял запись к записи скачать торрент [VIDEO] Лимб Haunter . Будь первым!

!Обратная связь