Westworld 2016 S02 720p AMZN WEB-DL H264 | Donna Moderna – 04 luglio 2018 | More Details

Скачать через торрент [VIDEO] Интерстеллар Interstellar бесплатно русская версия torrent активатор

Статистика раздачи
Размер:  3.15 GB   |    Зарегистрирован:  1 год 4 месяца   |    .torrent скачан:  57 раз   |   
Раздают:  1  
   
загрузка...
 
Автор Сообщение

Galfimbul

avatar Galfimbul


Интерстеллар / Interstellar (IMAX Edition)
«Следующий шаг человечества станет величайшим»

Год выпуска: 2014
Страна: США, Великобритания, Канада, Исландия / Legendary Pictures, Lynda Obst Productions, Paramount Pictures, Warner Bros.
Жанр: фантастика, боевик, детектив, приключения
Продолжительность: 02:49:04
Перевод №1: Русский Профессиональный (полное дублирование) Blu-ray CEE
Перевод №2: Украинский Профессиональный (полное дублирование) Blu-ray CEE
Перевод №3: Русский Профессиональный (многоголосый, закадровый) «Омикрон»
Перевод №4: Русский Авторский (одноголосый, закадровый) Сербин
Перевод №5: Русский Авторский (одноголосый, закадровый) Живов
Перевод №6: Русский Одноголосый (закадровый) Есарев
Оригинальная дорожка: Есть
Cубтитры: русские (forced, voronine, BD, iTunes, unknown), украинские (forced), английские (full, SDH, SDH-COLORED)
Режиссер: Кристофер Нолан / Christopher Nolan
В ролях: Мэттью МакКонахи, Энн Хэтэуэй, Кейси Аффлек, Джессика Честейн, Тофер Грейс, Уэс Бентли, Майкл Кейн, Мэтт Дэймон, Маккензи Фой, Джон Литгоу, Эллен Бёрстин и другие .
Описание: Когда засуха приводит человечество к продовольственному кризису, коллектив исследователей и учёных отправляется сквозь червоточину (которая предположительно соединяет области пространства-времени через большое расстояние) в путешествие, чтобы превзойти прежние ограничения для космических путешествий человека и переселить человечество на другую планету.
Релиз группы
Качество: BDRip / рип с BDRemux 1080p IMAX Edition
Формат: MP4
Видео кодек: H.264
Аудио кодек: AAC
Видео: 960х540 AR:16/9 1740 kbps 23.976 fps
Аудио №1: [Russian] 2ch 48 kHz 128 kbps - Профессиональный (полное дублирование) Blu-Ray CEE
Аудио №2: [Ukrainian] 2ch 48 kHz 128 kbps - Профессиональный (полное дублирование) Blu-Ray CEE
Аудио №3: [Russian] 2ch 48 kHz 128 kbps - Профессиональный (многоголосый, закадровый) «Омикрон»
Аудио №4: [Russian] 2ch 48 kHz 128 kbps - Авторский (одноголосый, закадровый) Сербин
Аудио №5: [Russian] 2ch 48 kHz 128 kbps - Авторский (одноголосый, закадровый) Живов
Аудио №6: [Russian] 2ch 48 kHz 128 kbps - Одноголосый (закадровый) Есарев
Аудио №7: [English] 2ch 48 kHz 128 kbps - Оригинал
avs [info]: 960x540p 1:1 @ 2997/125 fps (cfr)
x264 [info]: using SAR=1/1
x264 [info]: using cpu capabilities: MMX2 SSE2Fast SSSE3 SSE4.2 AVX FMA3 AVX2 LZCNT BMI2
x264 [info]: profile High, level 4.1

x264 [info]: frame I:2020 Avg QP:15.16 size: 56087
x264 [info]: frame P:55459 Avg QP:19.11 size: 18748
x264 [info]: frame B:185732 Avg QP:20.75 size: 5666
x264 [info]: consecutive B-frames: 3.1% 3.9% 8.3% 22.8% 16.9% 24.5% 7.9% 7.2% 2.9% 2.3%
x264 [info]: mb I I16..4: 14.8% 59.9% 25.3%
x264 [info]: mb P I16..4: 0.9% 6.6% 1.3% P16..4: 30.6% 34.0% 9.9% 0.0% 0.0% skip:16.8%
x264 [info]: mb B I16..4: 0.0% 0.6% 0.1% B16..8: 32.7% 15.9% 2.3% direct: 3.7% skip:44.6% L0:42.9% L1:44.9% BI:12.2%
x264 [info]: 8x8 transform intra:71.9% inter:59.9%
x264 [info]: direct mvs spatial:98.1% temporal:1.9%
x264 [info]: coded y,uvDC,uvAC intra: 79.7% 67.1% 36.5% inter: 18.7% 10.8% 3.0%
x264 [info]: i16 v,h,dc,p: 35% 16% 11% 38%
x264 [info]: i8 v,h,dc,ddl,ddr,vr,hd,vl,hu: 7% 8% 6% 10% 15% 13% 16% 11% 14%
x264 [info]: i4 v,h,dc,ddl,ddr,vr,hd,vl,hu: 9% 16% 7% 8% 14% 12% 13% 9% 12%
x264 [info]: i8c dc,h,v,p: 32% 36% 17% 15%
x264 [info]: Weighted P-Frames: Y:7.6% UV:2.7%
x264 [info]: ref P L0: 49.7% 12.5% 15.9% 6.1% 4.9% 3.6% 3.2% 1.8% 1.9% 0.3% 0.0%
x264 [info]: ref B L0: 76.4% 10.8% 5.4% 2.6% 1.9% 1.6% 0.9% 0.3%
x264 [info]: ref B L1: 94.4% 5.6%
x264 [info]: kb/s:1739.31

encoded 243211 frames, 13.96 fps, 1739.31 kb/s
GeneralComplete name : D:\Torrents\Interstellar.[IMAX Edition].2014.BDRip.x264.960x.rip by Frost O.S.mp4Format : MPEG-4Format profile : Base MediaCodec ID : isom (isom/avc1/iso2)File size : 3.15 GiBDuration : 2 h 49 minOverall bit rate mode : VariableOverall bit rate : 2 666 kb/sMovie name : Interstellar [IMAX Edition] 2014 BDRip x264 960x rip by Frost O SDirector : Кристофер Нолан / Christopher NolanActor : Мэттью МакКонахи / Энн Хэтэуэй / Кейси Аффлек / Джессика Честейн / Тофер Грейс / Уэс Бентли / Майкл Кейн / Мэтт Дэймон / Маккензи Фой / Джон Литгоу / Эллен БёрстинGenre : FantasyContentType : Short FilmEncoded date : UTC 2017-03-08 16:42:51Tagged date : UTC 2017-03-08 16:50:27Writing application : MkvToMp4 version: 0.224 (x64)Cover : YesComment : rip by Frost O.SLongDescription : Когда засуха приводит человечество к продовольственному кризису, коллектив исследователей и учёных отправляется сквозь червоточину (которая предположительно соединяет области пространства-времени через большое расстояние) в путешествие, чтобы превзойти прежние ограничения для космических путешествий человека и переселить человечество на другую планету.

VideoID : 1Format : AVCFormat/Info : Advanced Video CodecFormat profile : [email protected] settings, CABAC : YesFormat settings, ReFrames : 9 framesCodec ID : avc1Codec ID/Info : Advanced Video CodingDuration : 2 h 49 minBit rate : 1 740 kb/sMaximum bit rate : 10.2 Mb/sWidth : 960 pixelsHeight : 540 pixelsDisplay aspect ratio : 16:9Frame rate mode : ConstantFrame rate : 23.976 (24000/1001) FPSOriginal frame rate : 23.976 (23976/1000) FPSColor space : YUVChroma subsampling : 4:2:0Bit depth : 8 bitsScan type : ProgressiveBits/(Pixel*Frame) : 0.140Stream size : 2.05 GiB (65%)Writing library : x264 core 148 r2744 b97ae06Encoding settings : cabac=1 / ref=9 / deblock=1:-2:-2 / analyse=0x3:0x113 / me=umh / subme=11 / psy=1 / psy_rd=1.05:0.00 / mixed_ref=1 / me_range=32 / chroma_me=1 / trellis=2 / 8x8dct=1 / cqm=0 / deadzone=21,11 / fast_pskip=0 / chroma_qp_offset=-2 / threads=6 / lookahead_threads=1 / sliced_threads=0 / nr=0 / decimate=0 / interlaced=0 / bluray_compat=0 / constrained_intra=0 / bframes=9 / b_pyramid=2 / b_adapt=2 / b_bias=0 / direct=3 / weightb=1 / open_gop=0 / weightp=2 / keyint=250 / keyint_min=23 / scenecut=40 / intra_refresh=0 / rc_lookahead=60 / rc=2pass / mbtree=0 / bitrate=1740 / ratetol=1.0 / qcomp=0.70 / qpmin=0 / qpmax=69 / qpstep=4 / cplxblur=20.0 / qblur=0.5 / vbv_maxrate=50000 / vbv_bufsize=62500 / nal_hrd=none / filler=0 / ip_ratio=1.40 / pb_ratio=1.30 / aq=3:0.70Language : EnglishEncoded date : UTC 2017-03-08 16:42:51Tagged date : UTC 2017-03-08 16:45:59Color range : LimitedColor primaries : BT.709Transfer characteristics : BT.709Matrix coefficients : BT.709

Audio #1ID : 2Format : AACFormat/Info : Advanced Audio CodecFormat profile : LCCodec ID : 40Duration : 2 h 49 minBit rate mode : VariableBit rate : 128 kb/sMaximum bit rate : 135 kb/sChannel(s) : 2 channelsChannel positions : Front: L RSampling rate : 48.0 kHzFrame rate : 46.875 FPS (1024 spf)Compression mode : LossyStream size : 155 MiB (5%)Title : Dub_ Blu_ray CEE / Dub_ Blu_ray CEELanguage : RussianDefault : YesAlternate group : 1Encoded date : UTC 2017-03-08 16:44:24Tagged date : UTC 2017-03-08 16:45:59

Audio #2ID : 3Format : AACFormat/Info : Advanced Audio CodecFormat profile : LCCodec ID : 40Duration : 2 h 49 minBit rate mode : VariableBit rate : 128 kb/sMaximum bit rate : 135 kb/sChannel(s) : 2 channelsChannel positions : Front: L RSampling rate : 48.0 kHzFrame rate : 46.875 FPS (1024 spf)Compression mode : LossyStream size : 155 MiB (5%)Title : Dub_ Blu_ray CEE / Dub_ Blu_ray CEELanguage : UkrainianDefault : NoAlternate group : 1Encoded date : UTC 2017-03-08 16:44:40Tagged date : UTC 2017-03-08 16:45:59

Audio #3ID : 4Format : AACFormat/Info : Advanced Audio CodecFormat profile : LCCodec ID : 40Duration : 2 h 49 minBit rate mode : VariableBit rate : 128 kb/sMaximum bit rate : 135 kb/sChannel(s) : 2 channelsChannel positions : Front: L RSampling rate : 48.0 kHzFrame rate : 46.875 FPS (1024 spf)Compression mode : LossyStream size : 155 MiB (5%)Title : MVO_ _Omicron_ / MVO_ _Omicron_Language : RussianDefault : NoAlternate group : 1Encoded date : UTC 2017-03-08 16:44:55Tagged date : UTC 2017-03-08 16:45:59

Audio #4ID : 5Format : AACFormat/Info : Advanced Audio CodecFormat profile : LCCodec ID : 40Duration : 2 h 49 minBit rate mode : VariableBit rate : 128 kb/sMaximum bit rate : 135 kb/sChannel(s) : 2 channelsChannel positions : Front: L RSampling rate : 48.0 kHzFrame rate : 46.875 FPS (1024 spf)Compression mode : LossyStream size : 155 MiB (5%)Title : VO_ Serbin / VO_ SerbinLanguage : RussianDefault : NoAlternate group : 1Encoded date : UTC 2017-03-08 16:45:07Tagged date : UTC 2017-03-08 16:45:59

Audio #5ID : 6Format : AACFormat/Info : Advanced Audio CodecFormat profile : LCCodec ID : 40Duration : 2 h 49 minBit rate mode : VariableBit rate : 128 kb/sMaximum bit rate : 135 kb/sChannel(s) : 2 channelsChannel positions : Front: L RSampling rate : 48.0 kHzFrame rate : 46.875 FPS (1024 spf)Compression mode : LossyStream size : 155 MiB (5%)Title : VO_ Zhuvov / VO_ ZhuvovLanguage : RussianDefault : NoAlternate group : 1Encoded date : UTC 2017-03-08 16:45:19Tagged date : UTC 2017-03-08 16:45:59

Audio #6ID : 7Format : AACFormat/Info : Advanced Audio CodecFormat profile : LCCodec ID : 40Duration : 2 h 49 minBit rate mode : VariableBit rate : 128 kb/sMaximum bit rate : 135 kb/sChannel(s) : 2 channelsChannel positions : Front: L RSampling rate : 48.0 kHzFrame rate : 46.875 FPS (1024 spf)Compression mode : LossyStream size : 155 MiB (5%)Title : VO_ Esarev / VO_ EsarevLanguage : RussianDefault : NoAlternate group : 1Encoded date : UTC 2017-03-08 16:45:31Tagged date : UTC 2017-03-08 16:45:59

Audio #7ID : 8Format : AACFormat/Info : Advanced Audio CodecFormat profile : LCCodec ID : 40Duration : 2 h 49 minBit rate mode : VariableBit rate : 128 kb/sMaximum bit rate : 135 kb/sChannel(s) : 2 channelsChannel positions : Front: L RSampling rate : 48.0 kHzFrame rate : 46.875 FPS (1024 spf)Compression mode : LossyStream size : 155 MiB (5%)Title : Original / OriginalLanguage : EnglishDefault : NoAlternate group : 1Encoded date : UTC 2017-03-08 16:45:42Tagged date : UTC 2017-03-08 16:45:59

Text #1ID : 9Format : Timed TextMuxing mode : sbtlCodec ID : tx3gDuration : 2 h 42 minBit rate mode : VariableBit rate : 0 b/sStream size : 407 Bytes (0%)Title : forced / forcedLanguage : RussianDefault : YesForced : NoAlternate group : 2Encoded date : UTC 2017-03-08 16:45:58Tagged date : UTC 2017-03-08 16:45:59

Text #2ID : 10Format : Timed TextMuxing mode : sbtlCodec ID : tx3gDuration : 2 h 44 minBit rate mode : VariableBit rate : 111 b/sStream size : 134 KiB (0%)Title : full_Voronine / full_VoronineLanguage : RussianDefault : NoForced : NoAlternate group : 2Encoded date : UTC 2017-03-08 16:45:58Tagged date : UTC 2017-03-08 16:45:59

Text #3ID : 11Format : Timed TextMuxing mode : sbtlCodec ID : tx3gDuration : 2 h 43 minBit rate mode : VariableBit rate : 105 b/sStream size : 126 KiB (0%)Title : full_BD / full_BDLanguage : RussianDefault : NoForced : NoAlternate group : 2Encoded date : UTC 2017-03-08 16:45:58Tagged date : UTC 2017-03-08 16:45:59

Text #4ID : 12Format : Timed TextMuxing mode : sbtlCodec ID : tx3gDuration : 2 h 48 minBit rate mode : VariableBit rate : 97 b/sStream size : 120 KiB (0%)Title : full_iTunes / full_iTunesLanguage : RussianDefault : NoForced : NoAlternate group : 2Encoded date : UTC 2017-03-08 16:45:58Tagged date : UTC 2017-03-08 16:45:59

Text #5ID : 13Format : Timed TextMuxing mode : sbtlCodec ID : tx3gDuration : 2 h 43 minBit rate mode : VariableBit rate : 101 b/sStream size : 121 KiB (0%)Title : full _neizvestnue_ / full _neizvestnue_Language : RussianDefault : NoForced : NoAlternate group : 2Encoded date : UTC 2017-03-08 16:45:58Tagged date : UTC 2017-03-08 16:45:59

Text #6ID : 14Format : Timed TextMuxing mode : sbtlCodec ID : tx3gDuration : 2 h 42 minBit rate mode : VariableBit rate : 0 b/sStream size : 403 Bytes (0%)Title : forced / forcedLanguage : UkrainianDefault : NoForced : NoAlternate group : 2Encoded date : UTC 2017-03-08 16:45:58Tagged date : UTC 2017-03-08 16:45:59

Text #7ID : 15Format : Timed TextMuxing mode : sbtlCodec ID : tx3gDuration : 2 h 43 minBit rate mode : VariableBit rate : 62 b/sStream size : 74.0 KiB (0%)Title : full / fullLanguage : EnglishDefault : NoForced : NoAlternate group : 2Encoded date : UTC 2017-03-08 16:45:58Tagged date : UTC 2017-03-08 16:45:59

Text #8ID : 16Format : Timed TextMuxing mode : sbtlCodec ID : tx3gDuration : 2 h 43 minBit rate mode : VariableBit rate : 65 b/sStream size : 77.5 KiB (0%)Title : SDH / SDHLanguage : EnglishDefault : NoForced : NoAlternate group : 2Encoded date : UTC 2017-03-08 16:45:58Tagged date : UTC 2017-03-08 16:45:59

Text #9ID : 17Format : Timed TextMuxing mode : sbtlCodec ID : tx3gDuration : 2 h 43 minBit rate mode : VariableBit rate : 73 b/sStream size : 87.8 KiB (0%)Title : SDH_COLORED / SDH_COLOREDLanguage : EnglishDefault : NoForced : NoAlternate group : 2Encoded date : UTC 2017-03-08 16:45:58Tagged date : UTC 2017-03-08 16:45:59


Трекер:  [ 08-Мар-2017 19:30 ]

  

Скачать .torrent

Размер .torrent файла 16 KB


Размер: 3.15 GB
Хэш (hash) релиза: 5d38fad0ae4e1894a2cb7d8c37cf66874b917851

Торренты, похожие на [VIDEO] Интерстеллар Interstellar скачать торрент

Форум Название Автор Размер S L Добавлен
Видео (Фильмы/Клипы) ·· [VIDEO] Интерстеллар / Interstellar (Кристофер Нолан / Christopher Nolan) [2014, США, Великобритания, Канада, фантастика, драма, приключения, BDRip][MP4, 480x] Dub (IMAX Edition) Galfimbul 814212318776 MB 0 0 1438335094

12:31

31-Июл-15

Еще никто не оставлял запись к записи скачать торрент [VIDEO] Интерстеллар Interstellar . Будь первым!

!Обратная связь