Keen WESTWARD WP Walking boots dark olive/rust ZfMUv1 | Download | Lexie Roth

Скачать через торрент [VIDEO] Испанский-английский Spanglish бесплатно русская версия torrent активатор

Статистика раздачи
Размер:  3.45 GB   |    Зарегистрирован:  1 год 4 месяца   |    .torrent скачан:  28 раз   |   
Раздают:  1  
   
загрузка...
 
Автор Сообщение

Galfimbul

avatar Galfimbul



Испанский-английский / Spanglish
Год выпуска: 2004
Страна: США
Жанр: драма, мелодрама, комедия
Продолжительность: 02:11:07
Перевод 1: Профессиональный (дублированный) Видеосервис
Перевод 2: Профессиональный (двухголосый закадровый) Tycoon
Перевод 3: Профессиональный (двухголосый закадровый)
Перевод 4: Одноголосый закадровый Антон Карповский
Оригинальная аудиодорожка: английский
Cубтитры: русские, английские

Режиссер: Джеймс Л. Брукс / James L. Brooks

В ролях: Адам Сэндлер, Пас Вега, Теа Леони, Клорис Личмен, Шелби Брюс, Сара Стил, Йен Хайланд, Виктория Луна, Сесилия Суарес, Рикардо Молина

Описание: Мексиканка Флор Морено и ее дочь Кристина переезжают в Америку в поисках лучшей жизни. Известно, везет далеко не всем, но героиням улыбнулась фортуна — Флор получает работу экономки и кров в богатом доме четы Класки. Однако как нет, худа без добра, так и наоборот: синьора Морено не говорит по-английски, а Джон и Дебора Класки ни слова не понимают по-испански. Языковой барьер часто становится непреодолимой преградой для взаимопонимания эксцентричных американцев и консервативных латинос, то и дело приводя к анекдотическим недоразумениям. Впрочем, как бы не отличались их культуры, разве разумные люди не смогут рано или поздно найти общий язык? Хотя для этого им придется немало потрудиться…

Качество видео: BDRip | Испанский-английский Spanglish (2004) BDRip 1080p BLUEBIRD
Формат видео: MP4

Видео: AVC (x264), 1280x692 (1.85:1), ~2960 kbps, 23.976 fps, 0.139 bpp
Аудио 1 - 4: Русский, AСC, 48 KHz, 2 ch, 160 kbps
Аудио 5: Английский, AСC, 48 KHz, 2 ch, 160 kbps
Cубтитры: русские, английские
Формат субтитров: softsub (SRT)

[b]Релиз:
<div class="sp-wrap">
<div class="sp-head folded">x264 [info]</div>
<div class="sp-body">
crop(0, 21, -0, -21)
raw [info]: 1280x692p 1:1 @ 24000/1001 fps (cfr)
x264 [info]: using SAR=1/1
x264 [info]: profile High, level 4.1
x264 [info]: frame I:1376 Avg QP:20.00 size: 96738
x264 [info]: frame P:42070 Avg QP:22.85 size: 30028
x264 [info]: frame B:145170 Avg QP:24.93 size: 10420
x264 [info]: consecutive B-frames: 2.4% 4.2% 4.6% 27.1% 16.2% 28.4% 7.1% 7.6% 1.4% 0.5% 0.4%
x264 [info]: mb I I16..4: 4.3% 83.8% 11.9%
x264 [info]: mb P I16..4: 0.5% 7.0% 1.0% P16..4: 34.0% 37.7% 9.5% 0.0% 0.0% skip:10.3%
x264 [info]: mb B I16..4: 0.0% 0.6% 0.1% B16..8: 43.0% 17.0% 2.3% direct: 3.4% skip:33.6% L0:44.7% L1:50.5% BI: 4.8%
x264 [info]: 8x8 transform intra:82.5% inter:65.6%
x264 [info]: direct mvs spatial:98.8% temporal:1.2%
x264 [info]: coded y,uvDC,uvAC intra: 87.2% 73.7% 34.2% inter: 22.2% 13.6% 0.3%
x264 [info]: i16 v,h,dc,p: 29% 18% 4% 48%
x264 [info]: i8 v,h,dc,ddl,ddr,vr,hd,vl,hu: 10% 4% 4% 11% 17% 16% 15% 12% 10%
x264 [info]: i4 v,h,dc,ddl,ddr,vr,hd,vl,hu: 23% 5% 4% 8% 14% 15% 12% 10% 9%
x264 [info]: i8c dc,h,v,p: 30% 26% 21% 22%
x264 [info]: ref P L0: 55.5% 18.1% 9.7% 5.7% 3.9% 3.9% 3.2% 0.1%
x264 [info]: ref B L0: 76.8% 10.7% 5.7% 2.9% 2.1% 1.3% 0.5%
x264 [info]: ref B L1: 95.0% 5.0%
x264 [info]: kb/s:2958.36
<pre>
ОбщееУникальный идентификатор : 221496368315429686006106486285304593444 (0xA6A2A619CCB42884BD482B3B1B1FFC24)Полное имя : ...\Spanglish [email protected]Формат : MatroskaВерсия формата : Version 4 / Version 2Размер файла : 3,45 ГбайтПродолжительность : 2 ч. 11 м.Общий поток : 3767 Кбит/секНазвание фильма : Испанский-английский / / Spanglish / 2004 [email protected]=-Дата кодирования : UTC 2017-03-08 06:20:46Программа кодирования : mkvmerge v9.9.0 ('Pick Up') 64bitБиблиотека кодирования : libebml v1.3.4 + libmatroska v1.4.5Attachments : 500.jpgFileExtension_Invalid : mkv mk3d mka mks

ВидеоИдентификатор : 1Формат : AVCФормат/Информация : Advanced Video CodecПрофиль формата : [email protected]Параметр CABAC формата : ДаПараметр ReFrames формата : 8 кадровИдентификатор кодека : V_MPEG4/ISO/AVCПродолжительность : 2 ч. 11 м.Битрейт : 2960 Кбит/секШирина : 1280 пикселейВысота : 692 пикселяСоотношение сторон : 1,85:1Режим частоты кадров : ПостоянныйЧастота кадров : 23,976 (24000/1001) кадра/секЦветовое пространство : YUVСубдискретизация насыщенности : 4:2:0Битовая глубина : 8 битТип развёртки : ПрогрессивнаяБит/(Пиксели*Кадры) : 0.139Размер потока : 2,71 Гбайт (79%)Заголовок : Rip by nnlabetikБиблиотека кодирования : x264 core 148 r2744 b97ae06Настройки программы : cabac=1 / ref=8 / deblock=1:-2:-1 / analyse=0x3:0x113 / me=umh / subme=11 / psy=1 / psy_rd=1.00:0.00 / mixed_ref=1 / me_range=32 / chroma_me=1 / trellis=2 / 8x8dct=1 / cqm=0 / deadzone=21,11 / fast_pskip=0 / chroma_qp_offset=-2 / threads=4 / lookahead_threads=1 / sliced_threads=0 / nr=0 / decimate=1 / interlaced=0 / bluray_compat=0 / constrained_intra=0 / bframes=10 / b_pyramid=2 / b_adapt=2 / b_bias=0 / direct=3 / weightb=1 / open_gop=0 / weightp=0 / keyint=240 / keyint_min=23 / scenecut=40 / intra_refresh=0 / rc_lookahead=50 / rc=2pass / mbtree=0 / bitrate=2960 / ratetol=1.0 / qcomp=0.60 / qpmin=0 / qpmax=69 / qpstep=4 / cplxblur=20.0 / qblur=0.5 / vbv_maxrate=50000 / vbv_bufsize=62500 / nal_hrd=none / filler=0 / ip_ratio=1.40 / pb_ratio=1.30 / aq=1:1.00Язык : EnglishDefault : ДаForced : НетЦветовой диапазон : LimitedОсновные цвета : BT.709Характеристики трансфера : BT.709Коэффициенты матрицы : BT.709

Аудио #1Идентификатор : 2Формат : AACФормат/Информация : Advanced Audio CodecПрофиль формата : LCИдентификатор кодека : A_AACПродолжительность : 2 ч. 11 м.Битрейт : 161 Кбит/секКаналы : 2 каналаРасположение каналов : Front: L RЧастота : 48,0 КГцЧастота кадров : 46,875 кадров/сек (1024 spf)Метод сжатия : С потерямиРазмер потока : 151 Мбайт (4%)Заголовок : Видеосервис - DUBЯзык : RussianDefault : ДаForced : Нет

Аудио #2Идентификатор : 3Формат : AACФормат/Информация : Advanced Audio CodecПрофиль формата : LCИдентификатор кодека : A_AACПродолжительность : 2 ч. 11 м.Битрейт : 161 Кбит/секКаналы : 2 каналаРасположение каналов : Front: L RЧастота : 48,0 КГцЧастота кадров : 46,875 кадров/сек (1024 spf)Метод сжатия : С потерямиРазмер потока : 151 Мбайт (4%)Заголовок : Tycoon - DVOЯзык : RussianDefault : НетForced : Нет

Аудио #3Идентификатор : 4Формат : AACФормат/Информация : Advanced Audio CodecПрофиль формата : LCИдентификатор кодека : A_AACПродолжительность : 2 ч. 10 м.Битрейт : 161 Кбит/секКаналы : 2 каналаРасположение каналов : Front: L RЧастота : 48,0 КГцЧастота кадров : 46,875 кадров/сек (1024 spf)Метод сжатия : С потерямиРазмер потока : 150 Мбайт (4%)Заголовок : DVOЯзык : RussianDefault : НетForced : Нет

Аудио #4Идентификатор : 5Формат : AACФормат/Информация : Advanced Audio CodecПрофиль формата : LCИдентификатор кодека : A_AACПродолжительность : 2 ч. 11 м.Битрейт : 161 Кбит/секКаналы : 2 каналаРасположение каналов : Front: L RЧастота : 48,0 КГцЧастота кадров : 46,875 кадров/сек (1024 spf)Метод сжатия : С потерямиРазмер потока : 151 Мбайт (4%)Заголовок : А. Карповский - AVOЯзык : RussianDefault : НетForced : Нет

Аудио #5Идентификатор : 6Формат : AACФормат/Информация : Advanced Audio CodecПрофиль формата : LCИдентификатор кодека : A_AACПродолжительность : 2 ч. 11 м.Битрейт : 161 Кбит/секКаналы : 2 каналаРасположение каналов : Front: L RЧастота : 48,0 КГцЧастота кадров : 46,875 кадров/сек (1024 spf)Метод сжатия : С потерямиРазмер потока : 151 Мбайт (4%)Заголовок : OriginalЯзык : EnglishDefault : НетForced : Нет

Текст #1Идентификатор : 7Формат : UTF-8Идентификатор кодека : S_TEXT/UTF8Идентификатор кодека/Информация : UTF-8 Plain TextПродолжительность : 2 ч. 5 м.Битрейт : 93 бит/секCount of elements : 1657Размер потока : 86,4 Кбайт (0%)Язык : RussianDefault : НетForced : Нет

Текст #2Идентификатор : 8Формат : UTF-8Идентификатор кодека : S_TEXT/UTF8Идентификатор кодека/Информация : UTF-8 Plain TextПродолжительность : 2 ч. 5 м.Битрейт : 52 бит/секCount of elements : 1408Размер потока : 48,5 Кбайт (0%)Язык : EnglishDefault : НетForced : Нет

Меню00:00:00.000 : en:00:00:00.00000:11:56.799 : en:00:11:56.79900:20:03.452 : en:00:20:03.45200:30:08.932 : en:00:30:08.93200:40:02.400 : en:00:40:02.40000:50:46.377 : en:00:50:46.37700:59:31.193 : en:00:59:31.19301:10:11.958 : en:01:10:11.95801:19:33.394 : en:01:19:33.39401:29:26.361 : en:01:29:26.36101:40:32.318 : en:01:40:32.31801:48:52.443 : en:01:48:52.44302:00:35.728 : en:02:00:35.72802:06:34.670 : en:02:06:34.670
</pre></div>
</div>

Трекер:  [ 08-Мар-2017 10:30 ]

  

Скачать .torrent

Размер .torrent файла 17 KB


Размер: 3.45 GB
Хэш (hash) релиза: d965894b36ad28fbdd941e7156432c86ef561317

Еще никто не оставлял запись к записи скачать торрент [VIDEO] Испанский-английский Spanglish . Будь первым!

!Обратная связь