Free Download The Dhandho Investor Free Pdf Download | Naked SNCTM | RoundAndBrown - Ariana Aimes - Valentines Vagina

Скачать через торрент [SERIAL] Мистер Хутен и Леди Александра Леди и бродяга: Искатели приключений бесплатно русская версия torrent активатор

Статистика раздачи
Размер:  1.1 GB   |    Зарегистрирован:  1 год 4 месяца   |    .torrent скачан:  27 раз   |   
Раздают:  1  
   
загрузка...
 
Автор Сообщение

Galfimbul

avatar Galfimbul


Мистер Хутен и Леди Александра / Леди и бродяга: Искатели приключений / Hooten and the Lady1 сезон
Год выпуска: 2016
Страна: Великобритания
Жанр: драма, комедия, приключения, детектив
Продолжительность: 00:46:00
Перевод: Профессиональный (полное дублирование) ТВ3
Режиссер: Джастин Молотников / Justin Molotnikov, Дэниэл О’Хара / Daniel O'Hara, Колин Тиг / Colin Teague
В ролях: Майкл Лэндис, Офелия Ловибонд, Шон Паркес, Джессика Хайнс, Джонатан Бэйли, Джейн Сеймур, Стевель Марк, Валери Лиллей, Кирстон Вэрэйнг и другие.
Описание: Сюжет сериала крутится вокруг двух главных героев – отчаянных и очень смелых. Он – Улисс Хутен, американский кладоискатель, путешественник до мозга костей, привыкший покорять новые горизонты в одиночку. Она - Алекс Линдо-Паркер, сотрудница Британского музея, утонченная леди. Что может объединять этих двух, казалось бы, абсолютно разных людей? Жажда к приключениям и новым открытиям! В поисках древних артефактов Хутен и Алекс отправятся в далекое и порой опасное путешествие. Среди их главных целей — затерянный Золотой город, пропавший свиток Будды и даже могила Александра Македонского.
Доп. информация: На вырезанные на телеканале места (слово-два и их очень немного) сделаны вставки с озвучкой Jaskier
Качество: WEB-DLRip
Формат: 3GP
Видео кодек: MPEG-4 Visual
Аудио кодек: AAC
Видео: MPEG-4 Visual, 320x180 (16:9), 320 Kbps, 25 fps
Аудио: Русский, AAC, 2 ch, 128 Kbps, 48 KHz
ОбщееПолное имя : D:\Раздачи\Hooten.and.the.Lady.s01.WEB-DLRip.320x\1x01 - The Amazon.3gpФормат : MPEG-4Профиль формата : 3GPP Media Release 4Идентификатор кодека : 3gp4 (isom/iso2/3gp4)Размер файла : 145 МбайтПродолжительность : 45 м.Режим общего битрейта : ПостоянныйОбщий поток : 451 Кбит/сек

ВидеоИдентификатор : 1Формат : MPEG-4 VisualПрофиль формата : [email protected]Параметр BVOP формата : НетПараметр QPel формата : НетПараметр GMC формата : Без точки переходаПараметр матрицы формата : Default (H.263)Идентификатор кодека : 20Продолжительность : 45 м.Вид битрейта : ПостоянныйБитрейт : 320 Кбит/секШирина : 320 пикселейВысота : 180 пикселейСоотношение сторон : 16:9Режим частоты кадров : ПостоянныйЧастота кадров : 25,000 кадров/секЦветовое пространство : YUVСубдискретизация насыщенности : 4:2:0Битовая глубина : 8 битТип развёртки : ПрогрессивнаяМетод сжатия : С потерямиБит/(Пиксели*Кадры) : 0.222Размер потока : 102 Мбайт (71%)Библиотека кодирования : XviD 1.2.1 (UTC 2008-12-04)

АудиоИдентификатор : 2Формат : AACФормат/Информация : Advanced Audio CodecПрофиль формата : LCИдентификатор кодека : 40Продолжительность : 45 м.Вид битрейта : ПостоянныйБитрейт : 128 Кбит/секКаналы : 2 каналаРасположение каналов : Front: L RЧастота : 48,0 КГцЧастота кадров : 46,875 кадров/сек (1024 spf)Метод сжатия : С потерямиРазмер потока : 41,2 Мбайт (28%)


Трекер:  [ 08-Мар-2017 10:30 ]

  

Скачать .torrent

Размер .torrent файла 12 KB


Размер: 1.1 GB
Хэш (hash) релиза: ff4156d629983b838d45806a1109b79703f48401

Еще никто не оставлял запись к записи скачать торрент [SERIAL] Мистер Хутен и Леди Александра Леди и бродяга: Искатели приключений . Будь первым!

!Обратная связь