TV Time Travel | Грань / Fringe | Neuropsychology

Скачать через торрент [VIDEO] Кошки против собак: Дилогия Cats & Dogs: Dilogy бесплатно русская версия torrent активатор

Статистика раздачи
Размер:  2.69 GB   |    Зарегистрирован:  1 год 4 месяца   |    .torrent скачан:  32 раза   |   
Раздают:  1  
   
загрузка...
 
Автор Сообщение

Galfimbul

avatar Galfimbul


Кошки против собак: Дилогия / Cats & Dogs: Dilogy

Кошки против собак / Cats & Dogs

Год выпуска: 2001
Страна: США, Австралия
Жанр: комедия, семейный
Продолжительность: 01:27:15
Перевод №1: русский Профессиональный (полное дублирование)
Перевод №2: русский Профессиональный (многоголосый, закадровый) ТРК Россия
Перевод №3: русский Авторский (одноголосый, закадровый) Андрей Дольский
Перевод №4: русский Авторский (одноголосый, закадровый) Юрий Живов
Оригинальная дорожка: Есть
Cубтитры: русские (полные), английские (полные)
Режиссер: Лоуренс Гутерман / Lawrence Guterman
В ролях: Джефф Голдблюм (Professor Brody), Элизабет Перкинс (Mrs. Brody), Александр Поллок (Scotty Brody), Мириам Марголис (Sophie the Castle Maid), Майрон Нэтвик (Mr. Mason), Doris Chillcott (Mrs. Calvert), Кирстен Робек (Pie Mom), Фрэнк Ч. Тёрнер (The Farmer), Мар Андерсонс (Guard at Factory Gate), Джиллиан Барбер (Factory Receptionist), Кэрол Энн Сьюзи (Sophie's Sister), Рэнди Каплан (Sophie's Sister) и другие .
Описание: Они - хитры. Они - вороваты. Они начинают сверхсекретную войну на высшем технологическом уровне за власть над миром, и все - под нашим носом. Они кошки и собаки!
Посмотрите что получится, когда эксцентричный профессор совершит открытие, способное нарушить древний баланс власти четвероногих. Маленький и неопытный щенок по имени Лу начинает маловыполнимую миссию: пытается спасти человечество от КОТастрофы.
Релиз группы
Качество: BDRip / BDRemux 1080p
Формат: MP4
Видео кодек: H.264
Аудио кодек: AAC
Видео: 960x540 AR:16/9 1863 kbps fps
Аудио №1: [Russian] 2ch 48 kHz 128 kbps - [Dub] Профессиональный (полное дублирование)
Аудио №2: [Russian] 2ch 48 kHz 128 kbps - [MVO] Профессиональный (многоголосый, закадровый) ТРК Россия
Аудио №3: [Russian] 2ch 48 kHz 128 kbps - [VO] Авторский (одноголосый, закадровый) Андрей Дольский
Аудио №4: [Russian] 2ch 48 kHz 128 kbps - [VO] Авторский (одноголосый, закадровый) Юрий Живов
Аудио №5: [English] 2ch 48 kHz 128 kbps - Оригинал (английский)
<div class="sp-wrap">
<div class="sp-head folded">Logx264</div>
<div class="sp-body">avs [info]: 960x540p 1:1 @ 2997/125 fps (cfr)
x264 [info]: using SAR=1/1
x264 [info]: using cpu capabilities: MMX2 SSE2Fast SSSE3 SSE4.2 AVX FMA3 AVX2 LZCNT BMI2
x264 [info]: profile High, level 4.1

x264 [info]: frame I:1601 Avg QP:20.61 size: 52170
x264 [info]: frame P:28481 Avg QP:23.22 size: 18952
x264 [info]: frame B:95437 Avg QP:25.68 size: 6245
x264 [info]: consecutive B-frames: 2.9% 3.2% 8.3% 26.9% 17.0% 30.5% 5.2% 4.1% 1.9%
x264 [info]: mb I I16..4: 7.9% 75.5% 16.6%
x264 [info]: mb P I16..4: 1.5% 12.7% 1.8% P16..4: 31.6% 32.8% 8.6% 0.0% 0.0% skip:11.0%
x264 [info]: mb B I16..4: 0.2% 1.6% 0.2% B16..8: 34.8% 16.5% 2.3% direct: 4.4% skip:40.0% L0:42.4% L1:45.6% BI:12.1%
x264 [info]: 8x8 transform intra:79.6% inter:70.2%
x264 [info]: coded y,uvDC,uvAC intra: 84.8% 84.4% 55.4% inter: 19.5% 18.7% 3.3%
x264 [info]: i16 v,h,dc,p: 16% 16% 5% 64%
x264 [info]: i8 v,h,dc,ddl,ddr,vr,hd,vl,hu: 8% 7% 4% 10% 15% 15% 14% 13% 14%
x264 [info]: i4 v,h,dc,ddl,ddr,vr,hd,vl,hu: 12% 8% 4% 9% 15% 15% 14% 11% 12%
x264 [info]: i8c dc,h,v,p: 37% 23% 19% 22%
x264 [info]: Weighted P-Frames: Y:6.7% UV:4.2%
x264 [info]: ref P L0: 52.8% 13.4% 16.8% 5.7% 4.6% 3.2% 3.1% 0.2% 0.0%
x264 [info]: ref B L0: 80.8% 10.0% 5.0% 2.4% 1.3% 0.5%
x264 [info]: ref B L1: 95.0% 5.0%
x264 [info]: kb/s:1863.30

encoded 125519 frames, 12.28 fps, 1863.30 kb/s
GeneralComplete name : D:\Torrents\Cats & Dogs Dilogy.2001-2010.BDRip.x264.960x\Cats & Dogs.2001.BDRip.x264.960x.rip by Frost O.S.mp4Format : MPEG-4Format profile : Base MediaCodec ID : isom (isom/avc1/iso2)File size : 1.54 GiBDuration : 1 h 27 minOverall bit rate mode : VariableOverall bit rate : 2 526 kb/sMovie name : Cats & Dogs 2001 BDRip x264 960x rip by Frost O SDirector : Лоуренс Гутерман / Lawrence GutermanActor : Джефф Голдблюм (Professor Brody) / Элизабет Перкинс (Mrs. Brody) / Александр Поллок (Scotty Brody) / Мириам Марголис (Sophie the Castle Maid) / Майрон Нэтвик (Mr. Mason) / Doris Chillcott (Mrs. Calvert) / Кирстен Робек (Pie Mom) / Фрэнк Ч. Тёрнер (The Farmer) / Мар Андерсонс (Guard at Factory Gate) / Джиллиан Барбер (Factory Receptionist) / Кэрол Энн Сьюзи (Sophie's Sister) / Рэнди Каплан (Sophie's SisterGenre : ComedyContentType : Short FilmEncoded date : UTC 2017-03-06 19:57:08Tagged date : UTC 2017-03-06 20:00:18Writing application : MkvToMp4 version: 0.224 (x64)Cover : YesComment : rip by Frost O.SLongDescription : Они - хитры. Они - вороваты. Они начинают сверхсекретную войну на высшем технологическом уровне за власть над миром, и все - под нашим носом. Они кошки и собаки! Посмотрите что получится, когда эксцентричный профессор совершит открытие, способное нарушить древний баланс власти четвероногих. Маленький и неопытный щенок по имени Лу начинает маловыполнимую миссию: пытается спасти человечество от КОТастрофы.

VideoID : 1Format : AVCFormat/Info : Advanced Video CodecFormat profile : [email protected] settings, CABAC : YesFormat settings, ReFrames : 7 framesCodec ID : avc1Codec ID/Info : Advanced Video CodingDuration : 1 h 27 minBit rate : 1 863 kb/sMaximum bit rate : 9 473 kb/sWidth : 960 pixelsHeight : 540 pixelsDisplay aspect ratio : 16:9Frame rate mode : ConstantFrame rate : 23.976 (24000/1001) FPSOriginal frame rate : 23.976 (23976/1000) FPSColor space : YUVChroma subsampling : 4:2:0Bit depth : 8 bitsScan type : ProgressiveBits/(Pixel*Frame) : 0.150Stream size : 1.14 GiB (74%)Writing library : x264 core 148 r2744 b97ae06Encoding settings : cabac=1 / ref=7 / deblock=1:-2:-2 / analyse=0x3:0x113 / me=umh / subme=11 / psy=1 / psy_rd=1.00:0.00 / mixed_ref=1 / me_range=32 / chroma_me=1 / trellis=2 / 8x8dct=1 / cqm=0 / deadzone=21,11 / fast_pskip=1 / chroma_qp_offset=-2 / threads=6 / lookahead_threads=1 / sliced_threads=0 / nr=0 / decimate=1 / interlaced=0 / bluray_compat=0 / constrained_intra=0 / bframes=8 / b_pyramid=2 / b_adapt=2 / b_bias=0 / direct=1 / weightb=1 / open_gop=0 / weightp=2 / keyint=250 / keyint_min=23 / scenecut=40 / intra_refresh=0 / rc_lookahead=60 / rc=crf / mbtree=0 / crf=20.5 / qcomp=0.70 / qpmin=0 / qpmax=69 / qpstep=4 / vbv_maxrate=50000 / vbv_bufsize=62500 / crf_max=0.0 / nal_hrd=none / filler=0 / ip_ratio=1.40 / pb_ratio=1.30 / aq=2:0.70Language : EnglishEncoded date : UTC 2017-03-06 19:57:08Tagged date : UTC 2017-03-06 19:58:09Color range : LimitedColor primaries : BT.709Transfer characteristics : BT.709Matrix coefficients : BT.709

Audio #1ID : 2Format : AACFormat/Info : Advanced Audio CodecFormat profile : LCCodec ID : 40Duration : 1 h 27 minBit rate mode : VariableBit rate : 128 kb/sMaximum bit rate : 135 kb/sChannel(s) : 2 channelsChannel positions : Front: L RSampling rate : 48.0 kHzFrame rate : 46.875 FPS (1024 spf)Compression mode : LossyStream size : 79.9 MiB (5%)Title : Dub / DubLanguage : RussianDefault : YesAlternate group : 1Encoded date : UTC 2017-03-06 19:57:39Tagged date : UTC 2017-03-06 19:58:09

Audio #2ID : 3Format : AACFormat/Info : Advanced Audio CodecFormat profile : LCCodec ID : 40Duration : 1 h 27 minBit rate mode : VariableBit rate : 128 kb/sMaximum bit rate : 131 kb/sChannel(s) : 2 channelsChannel positions : Front: L RSampling rate : 48.0 kHzFrame rate : 46.875 FPS (1024 spf)Compression mode : LossyStream size : 79.9 MiB (5%)Title : MVO_ TPK Rossiya / MVO_ TPK RossiyaLanguage : RussianDefault : NoAlternate group : 1Encoded date : UTC 2017-03-06 19:57:46Tagged date : UTC 2017-03-06 19:58:09

Audio #3ID : 4Format : AACFormat/Info : Advanced Audio CodecFormat profile : LCCodec ID : 40Duration : 1 h 27 minBit rate mode : VariableBit rate : 128 kb/sMaximum bit rate : 131 kb/sChannel(s) : 2 channelsChannel positions : Front: L RSampling rate : 48.0 kHzFrame rate : 46.875 FPS (1024 spf)Compression mode : LossyStream size : 79.9 MiB (5%)Title : VO_ Dolskii / VO_ DolskiiLanguage : RussianDefault : NoAlternate group : 1Encoded date : UTC 2017-03-06 19:57:51Tagged date : UTC 2017-03-06 19:58:09

Audio #4ID : 5Format : AACFormat/Info : Advanced Audio CodecFormat profile : LCCodec ID : 40Duration : 1 h 27 minBit rate mode : VariableBit rate : 128 kb/sMaximum bit rate : 135 kb/sChannel(s) : 2 channelsChannel positions : Front: L RSampling rate : 48.0 kHzFrame rate : 46.875 FPS (1024 spf)Compression mode : LossyStream size : 79.9 MiB (5%)Title : VO_ Zhuvov / VO_ ZhuvovLanguage : RussianDefault : NoAlternate group : 1Encoded date : UTC 2017-03-06 19:57:59Tagged date : UTC 2017-03-06 19:58:09

Audio #5ID : 6Format : AACFormat/Info : Advanced Audio CodecFormat profile : LCCodec ID : 40Duration : 1 h 27 minBit rate mode : VariableBit rate : 128 kb/sMaximum bit rate : 135 kb/sChannel(s) : 2 channelsChannel positions : Front: L RSampling rate : 48.0 kHzFrame rate : 46.875 FPS (1024 spf)Compression mode : LossyStream size : 79.9 MiB (5%)Title : Original / OriginalLanguage : EnglishDefault : NoAlternate group : 1Encoded date : UTC 2017-03-06 19:58:05Tagged date : UTC 2017-03-06 19:58:09

Text #1ID : 7Format : Timed TextMuxing mode : sbtlCodec ID : tx3gDuration : 1 h 23 minBit rate mode : VariableBit rate : 86 b/sStream size : 52.7 KiB (0%)Title : Full / FullLanguage : RussianDefault : YesForced : NoAlternate group : 2Encoded date : UTC 2017-03-06 19:58:09Tagged date : UTC 2017-03-06 19:58:09

Text #2ID : 8Format : Timed TextMuxing mode : sbtlCodec ID : tx3gDuration : 1 h 27 minBit rate mode : VariableBit rate : 60 b/sStream size : 38.5 KiB (0%)Title : Full / FullLanguage : EnglishDefault : NoForced : NoAlternate group : 2Encoded date : UTC 2017-03-06 19:58:09Tagged date : UTC 2017-03-06 19:58:09
</div>
</div>
Кошки против собак: Месть Китти Галор / Cats & Dogs: The Revenge of Kitty Galore

Год выпуска: 2010
Страна: США, Австралия
Жанр: комедия, семейный
Продолжительность: 01:22:21
Перевод: русский Профессиональный (полное дублирование)
Оригинальная дорожка: Есть
Cубтитры: русские (форсированные, полные), английские (полные)
Режиссер: Брэд Пейтон / Brad Peyton
В ролях: Джеймс Марсден, Ник Нолти, Кристина Эпплгейт, Кэт Уильямс, Бетт Мидлер, Нил Патрик Харрис, Шон Хейс, Уоллес Шоун, Роджер Мур, Джо Пантольяно и другие .
Описание: В старом как мир противостоянии кошек и собак одна съехавшая с катушек кошачья особа зашла слиш-ш-шком далеко.

Китти Галор, в прошлом агент шпионской организации МЯУС, вышла из подчинения и замыслила дьявольский план, чтобы не только прижать к когтю своих собачьих недругов, но и нанести поражение своим бывшим кошачьим соратникам и прибрать в свои загребущие лапы власть над миром. Столкнувшись с беспрецедентной угрозой, кошки и собаки вынуждены впервые в истории объединить силы, заключив весьма неожиданный союз ради собственного спасения и спасения нас, людей, в новом фильме «Кошки против собак: Месть Китти Галор» — 3D комедии, которая сочетает игровые съемки, ультрасовременную аниматронику и компьютерную анимацию.

Битва до последнего клочка шерсти начинается!
Релиз группы
Качество: BDRip / Blu-ray 1080p
Формат: MP4
Видео кодек: H.264
Аудио кодек: AAC
Видео: 960x540 AR:16/9 1740 kbps fps
Аудио №1: [Russian] 2ch 48 kHz 128 kbps - [Dub] Профессиональный (полное дублирование)
Аудио №2: [English] 2ch 48 kHz 128 kbps - Оригинал (английский)
<div class="sp-wrap">
<div class="sp-head folded">Logx264</div>
<div class="sp-body">avs [info]: 960x540p 1:1 @ 2997/125 fps (cfr)
x264 [info]: using SAR=1/1
x264 [info]: using cpu capabilities: MMX2 SSE2Fast SSSE3 SSE4.2 AVX FMA3 AVX2 LZCNT BMI2
x264 [info]: profile High, level 4.1

x264 [info]: frame I:1136 Avg QP:18.32 size: 61664
x264 [info]: frame P:28161 Avg QP:21.99 size: 17985
x264 [info]: frame B:89143 Avg QP:23.69 size: 5583
x264 [info]: consecutive B-frames: 3.1% 3.6% 9.7% 29.8% 18.1% 24.2% 6.5% 3.9% 1.2%
x264 [info]: mb I I16..4: 13.4% 67.0% 19.5%
x264 [info]: mb P I16..4: 1.3% 9.5% 1.5% P16..4: 35.3% 35.9% 9.0% 0.0% 0.0% skip: 7.6%
x264 [info]: mb B I16..4: 0.1% 1.0% 0.1% B16..8: 35.1% 14.9% 2.2% direct: 4.0% skip:42.5% L0:43.7% L1:47.6% BI: 8.7%
x264 [info]: 8x8 transform intra:75.8% inter:61.2%
x264 [info]: direct mvs spatial:97.4% temporal:2.6%
x264 [info]: coded y,uvDC,uvAC intra: 84.6% 78.3% 44.8% inter: 19.6% 15.5% 4.5%
x264 [info]: i16 v,h,dc,p: 11% 15% 6% 68%
x264 [info]: i8 v,h,dc,ddl,ddr,vr,hd,vl,hu: 7% 7% 4% 11% 16% 15% 15% 12% 14%
x264 [info]: i4 v,h,dc,ddl,ddr,vr,hd,vl,hu: 10% 9% 5% 9% 15% 14% 14% 11% 13%
x264 [info]: i8c dc,h,v,p: 34% 27% 19% 20%
x264 [info]: Weighted P-Frames: Y:3.6% UV:2.3%
x264 [info]: ref P L0: 50.1% 10.1% 18.0% 6.2% 5.4% 3.7% 4.0% 2.3% 0.2% 0.0%
x264 [info]: ref B L0: 76.5% 11.0% 5.5% 2.9% 2.1% 1.4% 0.6%
x264 [info]: ref B L1: 94.9% 5.1%
x264 [info]: kb/s:1739.63

encoded 118440 frames, 13.42 fps, 1739.63 kb/s
GeneralComplete name : D:\Torrents\Cats & Dogs Dilogy.2001-2010.BDRip.x264.960x\Cats & Dogs The Revenge of Kitty Galore.2010.BDRip.x264.960x.rip by Frost O.S.mp4Format : MPEG-4Format profile : Base MediaCodec ID : isom (isom/avc1/iso2)File size : 1.15 GiBDuration : 1 h 22 minOverall bit rate mode : VariableOverall bit rate : 2 007 kb/sMovie name : Cats & Dogs The Revenge of Kitty Galore 2010 BDRip x264 960x rip by Frost O SDirector : Брэд Пейтон / Brad PeytonActor : Джеймс Марсден / Ник Нолти / Кристина Эпплгейт / Кэт Уильямс / Бетт Мидлер / Нил Патрик Харрис / Шон Хейс / Уоллес Шоун / Роджер Мур / Джо ПантольяноGenre : ComedyContentType : Short FilmEncoded date : UTC 2017-03-06 20:45:40Tagged date : UTC 2017-03-06 20:47:12Writing application : MkvToMp4 version: 0.224 (x64)Comment : rip by Frost O.SLongDescription : В старом как мир противостоянии кошек и собак одна съехавшая с катушек кошачья особа зашла слиш-ш-шком далеко. / Китти Галор, в прошлом агент шпионской организации МЯУС, вышла из подчинения и замыслила дьявольский план, чтобы не только прижать к когтю своих собачьих недругов, но и нанести поражение своим бывшим кошачьим соратникам и прибрать в свои загребущие лапы власть над миром. Столкнувшись с беспрецедентной угрозой, кошки и собаки вынуждены впервые в истории объединить силы, заключив весьма неожиданный союз ради собственного спасения и спасения нас, людей, в новом фильме «Кошки против собак: Месть Китти Галор» — 3D комедии, которая сочетает игровые съемки, ультрасовременную аниматронику и компьютерную анимацию. / Битва до последнего клочка шерсти начинается!

VideoID : 1Format : AVCFormat/Info : Advanced Video CodecFormat profile : [email protected] settings, CABAC : YesFormat settings, ReFrames : 8 framesCodec ID : avc1Codec ID/Info : Advanced Video CodingDuration : 1 h 22 minBit rate : 1 740 kb/sMaximum bit rate : 8 796 kb/sWidth : 960 pixelsHeight : 540 pixelsDisplay aspect ratio : 16:9Frame rate mode : ConstantFrame rate : 23.976 (24000/1001) FPSOriginal frame rate : 23.976 (23976/1000) FPSColor space : YUVChroma subsampling : 4:2:0Bit depth : 8 bitsScan type : ProgressiveBits/(Pixel*Frame) : 0.140Stream size : 1.00 GiB (87%)Writing library : x264 core 148 r2744 b97ae06Encoding settings : cabac=1 / ref=8 / deblock=1:-2:-2 / analyse=0x3:0x113 / me=umh / subme=11 / psy=1 / psy_rd=1.00:0.00 / mixed_ref=1 / me_range=32 / chroma_me=1 / trellis=2 / 8x8dct=1 / cqm=0 / deadzone=21,11 / fast_pskip=0 / chroma_qp_offset=-2 / threads=6 / lookahead_threads=1 / sliced_threads=0 / nr=0 / decimate=0 / interlaced=0 / bluray_compat=0 / constrained_intra=0 / bframes=8 / b_pyramid=2 / b_adapt=2 / b_bias=0 / direct=3 / weightb=1 / open_gop=0 / weightp=2 / keyint=250 / keyint_min=23 / scenecut=40 / intra_refresh=0 / rc_lookahead=60 / rc=2pass / mbtree=0 / bitrate=1740 / ratetol=1.0 / qcomp=0.65 / qpmin=0 / qpmax=69 / qpstep=4 / cplxblur=20.0 / qblur=0.5 / vbv_maxrate=50000 / vbv_bufsize=62500 / nal_hrd=none / filler=0 / ip_ratio=1.40 / pb_ratio=1.30 / aq=2:1.00Language : EnglishEncoded date : UTC 2017-03-06 20:45:40Tagged date : UTC 2017-03-06 20:46:08Color range : LimitedColor primaries : BT.709Transfer characteristics : BT.709Matrix coefficients : BT.709

Audio #1ID : 2Format : AACFormat/Info : Advanced Audio CodecFormat profile : LCCodec ID : 40Duration : 1 h 22 minBit rate mode : VariableBit rate : 128 kb/sMaximum bit rate : 135 kb/sChannel(s) : 2 channelsChannel positions : Front: L RSampling rate : 48.0 kHzFrame rate : 46.875 FPS (1024 spf)Compression mode : LossyStream size : 75.4 MiB (6%)Title : Dub / DubLanguage : RussianDefault : YesAlternate group : 1Encoded date : UTC 2017-03-06 20:45:57Tagged date : UTC 2017-03-06 20:46:08

Audio #2ID : 3Format : AACFormat/Info : Advanced Audio CodecFormat profile : LCCodec ID : 40Duration : 1 h 22 minBit rate mode : VariableBit rate : 128 kb/sMaximum bit rate : 135 kb/sChannel(s) : 2 channelsChannel positions : Front: L RSampling rate : 48.0 kHzFrame rate : 46.875 FPS (1024 spf)Compression mode : LossyStream size : 75.4 MiB (6%)Title : Original / OriginalLanguage : EnglishDefault : NoAlternate group : 1Encoded date : UTC 2017-03-06 20:45:59Tagged date : UTC 2017-03-06 20:46:08

Text #1ID : 4Format : Timed TextMuxing mode : sbtlCodec ID : tx3gDuration : 1 h 14 minBit rate mode : VariableBit rate : 3 b/sStream size : 1.62 KiB (0%)Title : Forced / ForcedLanguage : RussianDefault : YesForced : NoAlternate group : 2Encoded date : UTC 2017-03-06 20:46:08Tagged date : UTC 2017-03-06 20:46:08

Text #2ID : 5Format : Timed TextMuxing mode : sbtlCodec ID : tx3gDuration : 1 h 22 minBit rate mode : VariableBit rate : 126 b/sStream size : 75.8 KiB (0%)Title : Full / FullLanguage : RussianDefault : NoForced : NoAlternate group : 2Encoded date : UTC 2017-03-06 20:46:08Tagged date : UTC 2017-03-06 20:46:08

Text #3ID : 6Format : Timed TextMuxing mode : sbtlCodec ID : tx3gDuration : 1 h 22 minBit rate mode : VariableBit rate : 88 b/sStream size : 52.8 KiB (0%)Title : Full / FullLanguage : EnglishDefault : NoForced : NoAlternate group : 2Encoded date : UTC 2017-03-06 20:46:08Tagged date : UTC 2017-03-06 20:46:08
</div>
</div>

Трекер:  [ 06-Мар-2017 23:00 ]

  

Скачать .torrent

Размер .torrent файла 14 KB


Размер: 2.69 GB
Хэш (hash) релиза: f610a639552a8e4e4a66bdb7e2ebd0bfb259c4c7

Еще никто не оставлял запись к записи скачать торрент [VIDEO] Кошки против собак: Дилогия Cats & Dogs: Dilogy . Будь первым!

!Обратная связь